.
Авторизация | Регистрация
bitok.xyz
» » Звериная ярость / Primal (2019) HDRip торрент скачать бесплатно


    Звериная ярость / Primal (2019) HDRip торрент скачать бесплатно

    Дата: 26-12-2019, 05:00 | .torrent скачали: 3

    Звериная ярость / Primal (2019) HDRipПроизводство: США/Daniel Grodnik Productions, The Wonderfilm Media Corporation, Imprint Entertainment
    Жанр: Боевик
    Режиссер: Ник Пауэлл

    Актеры
    Николас Кейдж, Фамке Янссен, Кевин Дюран, ЛаМоника Гаррет, Майкл Империоли, Том Уолкер, Рей Эрнандес, Джон Льюис, Браулио Кастильо мл., Дрэйк Шеннон

    Описание

    Охотник и зверолов Фрэнк Уолш промышляет редкими видами животных. Недавно он поймал в дождевых лесах Бразилии белого ягуара и теперь рассчитывает продать его в зоопарк за кругленькую сумму. Но кроме Фрэнка и его живого груза на борту корабля, следующего в Америку, оказывается опасный убийца, который должен предстать перед судом, и которого по медицинским показаниям нельзя перевозить на самолёте. В пути преступник сбегает и выпускает из клеток не только обезьян и ядовитых змей, но и агрессивного ягуара.

    Возраст: 18+ (зрителям, достигшим 18 лет. запрещено для детей)
    Рейтинг MPAA: R (лицам до 17 лет обязательно присутствие взрослого)
    Дата мировой премьеры: 5 ноября 2019
    Цифровой релиз: 24 декабря 2019
    Продолжительность: 01: 36: 50
    Качество видео: HDRip
    Перевод: Дублированный (iTunes)
    Субтитры: Отсутствуют
    Видео: XviD, 704x296, ~879 Kbps
    Аудио: MP3, 2 ch, 128 Kbps
    Общее
    Полное имя : D: NNMЗвериная яростьPrimal.2019.HDRip.avi
    Формат : AVI
    Формат/Информация : Audio Video Interleave
    Размер файла : 704 Мбайт
    Продолжительность : 1 ч. 36 м.
    Общий поток : 1016 Кбит/сек
    Программа кодирования : VirtualDubMod 1.5.10.3 |www.virtualdub-fr.org|| (build 2550/release)
    Библиотека кодирования : VirtualDubMod build 2550/release
    Видео
    Идентификатор : 0
    Формат : MPEG-4 Visual
    Профиль формата : Advanced Simple@L5
    Настройки формата : BVOP1/Custom Matrix
    Параметр BVOP формата : 1
    Параметр QPel формата : Нет
    Параметр GMC формата : Без точки перехода
    Параметр матрицы формата : Выборочная
    Идентификатор кодека : XVID
    Идентификатор кодека/Подсказка : XviD
    Продолжительность : 1 ч. 36 м.
    Битрейт : 879 Кбит/сек
    Ширина : 704 пикселя
    Высота : 296 пикселей
    Соотношение сторон : 2, 40: 1
    Частота кадров : 23, 976 (24000/1001) кадра/сек
    Цветовое пространство : YUV
    Субдискретизация насыщенности : 4: 2: 0
    Битовая глубина : 8 бит
    Тип развёртки : Прогрессивная
    Метод сжатия : С потерями
    Бит/(Пиксели*Кадры) : 0.176
    Размер потока : 609 Мбайт (86%)
    Библиотека кодирования : XviD 1.2.1 (UTC 2008-12-04)
    Аудио
    Идентификатор : 1
    Формат : MPEG Audio
    Версия формата : Version 1
    Профиль формата : Layer 3
    Идентификатор кодека : 55
    Идентификатор кодека/Подсказка : MP3
    Продолжительность : 1 ч. 36 м.
    Вид битрейта : Постоянный
    Битрейт : 128 Кбит/сек
    Каналы : 2 канала
    Частота : 48, 0 КГц
    Частота кадров : 41, 667 кадра/сек (1152 SPF)
    Метод сжатия : С потерями
    Размер потока : 88, 7 Мбайт (13%)
    Выравнивание : Соединение по промежуткам
    Продолжительность промежутка : 42 мс. (1, 00 видеокадр)
    Время предзагрузки промежутка : 504 мс.
    Библиотека кодирования : LAME3.99r
    Настройки программы : -m s -V 4 -q 2 -lowpass 17 -b 128

    Скриншоты для ознакомления



    Все одноименные релизы в Клубе Время раздачи: 24/7 (до появления первых 3-5 скачавших)

    Онлайн видео Звериная ярость



    Звериная ярость/Primal (2019) HDRip
    Рейтинг →
     (голосов: 1, оценка 3/5, голосовать можно 1 раз )

    Другие торренты по теме:

  • Звериная ярость / Primal (2019) BDRip [H.264 / 1080p]
  • Звериная ярость / Primal (2019) HDRip
  • Звериная ярость / Primal (2019) BDRip [H.264 / 720p-LQ]
  • Звериная ярость / Primal (2019) BDRemux [H.264 / 1080p]
  • Звериная ярость / Primal (2019) BDRip [H.264 / 1080p-LQ]


    • Комментарии (0):

      Информация

      Информация

        Посетители, находящиеся в группе Гости, не могут оставлять комментарии в данной новости.

        ↓ Меню




        ↓ Опрос

        Вы добавили сайт в закладки?
        Да
        Нет


        Популярное