.
Авторизация | Регистрация
bitok.xyz
» » Противостояние / The One (2001) BDRip [H.264 / 1080p] [Open Matte] торрент скачать бесплатно


    Противостояние / The One (2001) BDRip [H.264 / 1080p] [Open Matte] торрент скачать бесплатно

    Дата: 26-12-2019, 05:00 | .torrent скачали: 1

    Противостояние / The One (2001) BDRip [H.264 / 1080p] [Open Matte]Производство: США/Revolution Studios, Hard Eight Pictures
    Жанр: фантастика, боевик, триллер
    Режиссер: Джеймс Вонг

    Актеры
    Джет Ли, Джейсон Стэтхэм, Карла Гуджино, Делрой Линдо, Джеймс Моррисон, Дилан Бруно, Ричард Стейнметц, Стив Рэнкин, Такер Смоллвуд, Харриет Сэнсом Харрис

    Описание

    Что делать, если твой мир рушится, когда в него вторгается безжалостный пришелец из параллельных миров? Стремясь стать сверхчеловеком, агент Межпространственного Бюро Расследований Юло совершает головокружительное сафари по параллельным мирам, охотясь за своими двойниками.
    Силы его растут с каждой новой жертвой, их жизненная энергия аккумулируется в нем, наделяя его невероятными способностями. Никто не знает, что случится с хрупким равновесием вселенных, если Юло достигнет своей цели — уничтожить всех двойников. Его мечта уже почти становится реальностью, когда на пути Юло становится Гэйб — полицейский из Лос-Анджелеса…

    Возраст: 16+ (зрителям, достигшим 16 лет)
    Рейтинг MPAA: PG-13 (детям до 13 лет просмотр нежелателен)
    Продолжительность: 01: 27: 17
    Качество видео: BDRip
    Перевод: Дублированный, многоголосый профессиональный, двухголосый профессиональный
    Субтитры: русские, английские
    Видео: AVC/H.264, 1920x1080, ~13 mbps
    Аудио 1: AC3, 6 ch, 640 kbps, Русский (DUB Невафильм) (handmade YuriyAS)
    Аудио 2: AC3, 6 ch, 448 kbps, Русский (MVO)
    Аудио 3: AC3, 2 ch, 192 kbps, Русский (DVO ТК Россия)
    Аудио 4: DTS, 6 ch, 1509 kbps, Английский
    Общее
    Уникальный идентификатор : 234875418924637204843738842815808263012 (0xB0B35C396492644C8B01D04F77E5D364)
    Полное имя : D: FILMSZALIVThe.One.2001.BDRip.1080p.Open.Matte.mkv
    Формат : Matroska
    Версия формата : Version 4
    Размер файла : 9, 62 Гбайт
    Продолжительность : 1 ч. 27 м.
    Общий поток : 15, 8 Мбит/сек
    Дата кодирования : UTC 2019-12-25 02: 58: 18
    Программа кодирования : mkvmerge v8.2.0 (\'World of Adventure\') 64bit
    Библиотека кодирования : libebml v1.3.1 + libmatroska v1.4.2
    Видео
    Идентификатор : 1
    Формат : AVC
    Формат/Информация : Advanced Video Codec
    Профиль формата : High@L4.1
    Настройки формата : CABAC/4 Ref Frames
    Параметр CABAC формата : Да
    Параметр RefFrames формата : 4 кадра
    Идентификатор кодека : V_MPEG4/ISO/AVC
    Продолжительность : 1 ч. 27 м.
    Битрейт : 13, 0 Мбит/сек
    Ширина : 1920 пикселей
    Высота : 1080 пикселей
    Соотношение сторон : 16: 9
    Режим частоты кадров : Постоянный
    Частота кадров : 23, 976 (24000/1001) кадра/сек
    Цветовое пространство : YUV
    Субдискретизация насыщенности : 4: 2: 0
    Битовая глубина : 8 бит
    Тип развёртки : Прогрессивная
    Бит/(Пиксели*Кадры) : 0.261
    Размер потока : 7, 92 Гбайт (82%)
    Библиотека кодирования : x264 core 146 r2538 121396c
    Настройки программы : cabac=1/ref=4/deblock=1: -2: -2/analyse=0x3: 0x133/me=umh/subme=11/psy=1/psy_rd=1.00: 0.00/mixed_ref=1/me_range=32/chroma_me=1/trellis=2/8x8dct=1/cqm=0/deadzone=21, 11/fast_pskip=0/chroma_qp_offset=-2/threads=12/lookahead_threads=2/sliced_threads=0/nr=0/decimate=0/interlaced=0/bluray_compat=0/constrained_intra=0/bframes=14/b_pyramid=2/b_adapt=2/b_bias=0/direct=3/weightb=1/open_gop=0/weightp=2/keyint=240/keyint_min=24/scenecut=40/intra_refresh=0/rc=2pass/mbtree=0/bitrate=13000/ratetol=1.0/qcomp=0.60/qpmin=0/qpmax=69/qpstep=4/cplxblur=20.0/qblur=0.5/ip_ratio=1.40/pb_ratio=1.30/aq=3: 0.80
    Язык : English
    Default : Нет
    Forced : Нет
    Аудио #1
    Идентификатор : 2
    Формат : AC-3
    Формат/Информация : Audio Coding 3
    Коммерческое название : Dolby Digital
    Идентификатор кодека : A_AC3
    Продолжительность : 1 ч. 27 м.
    Вид битрейта : Постоянный
    Битрейт : 640 Кбит/сек
    Каналы : 6 каналов
    ChannelLayout : L R C LFE Ls Rs
    Частота : 48, 0 КГц
    Частота кадров : 31, 250 кадров/сек (1536 SPF)
    Метод сжатия : С потерями
    Размер потока : 400 Мбайт (4%)
    Заголовок : Dub Невафильм
    Язык : Russian
    ServiceKind/String : Complete Main
    Default : Нет
    Forced : Нет
    Аудио #2
    Идентификатор : 3
    Формат : AC-3
    Формат/Информация : Audio Coding 3
    Коммерческое название : Dolby Digital
    Идентификатор кодека : A_AC3
    Продолжительность : 1 ч. 27 м.
    Вид битрейта : Постоянный
    Битрейт : 448 Кбит/сек
    Каналы : 6 каналов
    ChannelLayout : L R C LFE Ls Rs
    Частота : 48, 0 КГц
    Частота кадров : 31, 250 кадров/сек (1536 SPF)
    Метод сжатия : С потерями
    Размер потока : 280 Мбайт (3%)
    Заголовок : MVO
    Язык : Russian
    ServiceKind/String : Complete Main
    Default : Нет
    Forced : Нет
    Аудио #3
    Идентификатор : 4
    Формат : AC-3
    Формат/Информация : Audio Coding 3
    Коммерческое название : Dolby Digital
    Идентификатор кодека : A_AC3
    Продолжительность : 1 ч. 27 м.
    Вид битрейта : Постоянный
    Битрейт : 192 Кбит/сек
    Каналы : 2 канала
    ChannelLayout : L R
    Частота : 48, 0 КГц
    Частота кадров : 31, 250 кадров/сек (1536 SPF)
    Метод сжатия : С потерями
    Размер потока : 120 Мбайт (1%)
    Заголовок : DVO Россия
    Язык : Russian
    ServiceKind/String : Complete Main
    Default : Нет
    Forced : Нет
    Аудио #4
    Идентификатор : 5
    Формат : DTS
    Формат/Информация : Digital Theater Systems
    Идентификатор кодека : A_DTS
    Продолжительность : 1 ч. 27 м.
    Вид битрейта : Постоянный
    Битрейт : 1509 Кбит/сек
    Каналы : 6 каналов
    ChannelLayout : C L R Ls Rs LFE
    Частота : 48, 0 КГц
    Частота кадров : 93, 750 кадра/сек (512 SPF)
    Битовая глубина : 16 бит
    Метод сжатия : С потерями
    Размер потока : 942 Мбайт (10%)
    Язык : English
    Default : Нет
    Forced : Нет
    Текст #1
    Идентификатор : 6
    Формат : UTF-8
    Идентификатор кодека : S_TEXT/UTF8
    Идентификатор кодека/Информация : UTF-8 Plain Text
    Продолжительность : 1 ч. 16 м.
    Битрейт : 0 бит/сек
    ElementCount : 11
    Размер потока : 547 байт (0%)
    Заголовок : Forced
    Язык : Russian
    Default : Нет
    Forced : Нет
    Текст #2
    Идентификатор : 7
    Формат : UTF-8
    Идентификатор кодека : S_TEXT/UTF8
    Идентификатор кодека/Информация : UTF-8 Plain Text
    Продолжительность : 1 ч. 20 м.
    Битрейт : 54 бит/сек
    ElementCount : 574
    Размер потока : 32, 1 Кбайт (0%)
    Язык : Russian
    Default : Нет
    Forced : Нет
    Текст #3
    Идентификатор : 8
    Формат : UTF-8
    Идентификатор кодека : S_TEXT/UTF8
    Идентификатор кодека/Информация : UTF-8 Plain Text
    Продолжительность : 1 ч. 22 м.
    Битрейт : 33 бит/сек
    ElementCount : 699
    Размер потока : 20, 5 Кбайт (0%)
    Язык : English
    Default : Нет
    Forced : Нет
    Меню
    00: 00: 00.000 : : Chapter 1
    00: 00: 36.161 : : Chapter 2
    00: 11: 15.216 : : Chapter 3
    00: 19: 44.642 : : Chapter 4
    00: 30: 01.091 : : Chapter 5
    00: 40: 05.945 : : Chapter 6
    00: 49: 59.330 : : Chapter 7
    00: 53: 18.404 : : Chapter 8
    01: 02: 15.941 : : Chapter 9
    01: 06: 21.686 : : Chapter 10
    01: 14: 16.369 : : Chapter 11
    01: 17: 41.907 : : Chapter 12
    01: 20: 43.714 : : Chapter 13


    Скриншоты для ознакомления



    Все одноименные релизы в Клубе
    Время раздачи: c 5 до 19 мск (до появления первых 3-5 скачавших)

    Онлайн видео Противостояние



    Противостояние/The One (2001) BDRip [H.264/1080p] [Open Matte]
    Рейтинг →
     (голосов: 1, оценка 4/5, голосовать можно 1 раз )

    Другие торренты по теме:

  • Противостояние / The One (2001) BDRip [1080p] [hand made 60fps] скачать через торрент бесплатно
  • Противостояние / The One (2001) BDRip [720]
  • Senran Kagura: Estival Versus - Mizugi Darake no Zenyasai / Хоровод огней: Летнее противостояние - Евы в купальниках [2015, OVA, 1] BDrip 1080p raw скачать через торрент бесплатно
  • Первый мститель: Противостояние / Captain America: Civil War (2016) BDRip [H.264 / 720p] [Line]
  • Первый мститель: Противостояние / Captain America: Civil War (2016) BDRip [H.264 / 1080p] [EN / EN Sub]
  • Первый мститель: Противостояние / Captain America: Civil War (2016) BDRip [H.264 / 720p] [EN / EN Sub]
  • Первый мститель: Противостояние / Captain America: Civil War (2016) BDRip [H.264 / 1080p] [Line]
  • Первый мститель: Противостояние / Captain America: Civil War (2016) BDRip [576p] iPad


    • Комментарии (0):

      Информация

      Информация

        Посетители, находящиеся в группе Гости, не могут оставлять комментарии в данной новости.

        ↓ Меню




        ↓ Опрос

        Вы добавили сайт в закладки?
        Да
        Нет


        Популярное