.
Авторизация | Регистрация
bitok.xyz
» » Петля времени / Looper (2012) BDRip [H.265 / 1080p] [10-bit] [PR] торрент скачать бесплатно


    Петля времени / Looper (2012) BDRip [H.265 / 1080p] [10-bit] [PR] торрент скачать бесплатно

    Дата: 26-12-2019, 05:00 | .torrent скачали: 0

    Петля времени / Looper (2012) BDRip [H.265 / 1080p] [10-bit] [PR]Производство: США, Китай/DMG Entertainment, Endgame Entertainment, FilmDistrict, Ram Bergman Productions
    Жанр: фантастика, боевик, триллер, драма, криминал
    Режиссер: Райан Джонсон

    Актеры
    Джозеф Гордон-Левитт, Брюс Уиллис, Эмили Блант, Джефф Дэниелс, Ноа Сеган, Пол Дано, Гаррет Диллахант, Пайпер Перабо, Трэйси Томс, Пирс Гэнон

    Описание
    В недалеком будущем, где стали возможны путешествия во времени, некая корпорация убирает нежелательных людей, отправляя их в прошлое. Задача принимающей стороны — убить жертву, стерев тем самым несчастного из истории.

    Возраст: 18+ (зрителям, достигшим 18 лет. запрещено для детей)
    Рейтинг MPAA: R (лицам до 17 лет обязательно присутствие взрослого)
    Релиз от: Spartanec1308 (HEVC-CLUB)
    Продолжительность: 01: 58: 53
    Качество видео: BDRip
    Перевод: Дублированный, авторский
    Субтитры: Русские, английские
    Видео: HEVC/H.265, 1920x816, ~7528 Kbps
    Аудио 1: AC3, 6 ch, 640 Kbps - Русский, дублированный (Лицензия)
    Аудио 2: AC3, 6 ch, 640 Kbps - Русский, AVO (Гаврилов)
    Аудио 3: AC3, 6 ch, 640 Kbps - Русский, AVO (Володарский)
    Аудио 4: AC3, 6 ch, 640 Kbps - Английский
    Общее
    Уникальный идентификатор : 230083035275987900358208313479533373246 (0xAD186177BDB38BDD86124C1DF8DB273E)
    Полное имя : R: Петля времени (2012) BDRip 1080p HEVC 10bit by Spartanec1308.mkv
    Формат : Matroska
    Версия формата : Version 4/Version 2
    Размер файла : 8, 38 Гбайт
    Продолжительность : 1 ч. 58 м.
    Общий поток : 10, 1 Мбит/сек
    Название фильма : by Spartanec1308
    Дата кодирования : UTC 2019-12-24 05: 36: 28
    Программа кодирования : mkvmerge v7.0.0 (\'Where We Going\') 64bit built on Jun 9 2014 15: 16: 27
    Библиотека кодирования : libebml v1.3.0 + libmatroska v1.4.1
    Обложка : Yes
    Attachments : cover.jpg
    Видео
    Идентификатор : 1
    Формат : HEVC
    Формат/Информация : High Efficiency Video Coding
    Профиль формата : Main10@L4.1@High
    Идентификатор кодека : V_MPEGH/ISO/HEVC
    Продолжительность : 1 ч. 58 м.
    Битрейт : 7528 Кбит/сек
    Ширина : 1920 пикселей
    Высота : 816 пикселей
    Соотношение сторон : 2, 35: 1
    Режим частоты кадров : Постоянный
    Частота кадров : 23, 976 (23976/1000) кадра/сек
    Частота кадров в оригинале : 23, 976 (24000/1001) кадра/сек
    Цветовое пространство : YUV
    Субдискретизация насыщенности : 4: 2: 0
    Битовая глубина : 10 бит
    Бит/(Пиксели*Кадры) : 0.200
    Размер потока : 6, 25 Гбайт (75%)
    Заголовок : Spartanec1308
    Библиотека кодирования : x265 3.2.1+1-b5c86a64bbbe: WindowsGCC 9.2.064 bit 10bit
    Настройки программы : cpuid=1111039/frame-threads=4/numa-pools=16/wpp/no-pmode/no-pme/no-psnr/no-ssim/log-level=2/input-csp=1/input-res=1920x816/interlace=0/total-frames=171024/level-idc=41/high-tier=1/uhd-bd=0/ref=5/no-allow-non-conformance/no-repeat-t_heads/annexb/no-aud/no-hrd/info/hash=0/no-temporal-layers/open-gop/min-keyint=23/keyint=240/gop-lookahead=0/bframes=12/b-adapt=2/b-pyramid/bframe-bias=0/rc-lookahead=60/lookahead-slices=1/scenecut=40/radl=0/no-splice/no-intra-refresh/ctu=32/min-cu-size=8/rect/amp/max-tu-size=32/tu-inter-depth=4/tu-intra-depth=4/limit-tu=1/rdoq-level=2/dynamic-rd=0.00/no-ssim-rd/signhide/no-tskip/nr-intra=0/nr-inter=0/no-constrained-intra/no-strong-intra-smoothing/max-merge=5/limit-refs=0/no-limit-modes/me=3/subme=7/merange=57/temporal-mvp/no-hme/weightp/weightb/no-analyze-src-pics/deblock=-2: -2/no-sao/no-sao-non-deblock/rd=6/selective-sao=0/no-early-skip/no-rskip/no-fast-intra/no-tskip-fast/no-cu-lossless/b-intra/no-splitrd-skip/rdpenalty=0/psy-rd=1.00/psy-rdoq=1.00/no-rd-refine/no-lossless/cbqpoffs=0/crqpoffs=0/rc=crf/crf=20.5/qcomp=0.70/qpstep=4/stats-write=0/stats-read=0/vbv-maxrate=50000/vbv-bufsize=50000/vbv-init=0.9/crf-max=0.0/crf-min=0.0/ipratio=1.40/pbratio=1.30/aq-mode=2/aq-strength=1.00/no-cutree/zone-count=0/no-strict-cbr/qg-size=32/no-rc-grain/qpmax=69/qpmin=0/no-const-vbv/sar=1/overscan=0/videoformat=5/range=0/colorprim=1/transfer=1/colormatrix=1/chromaloc=0/display-window=0/cll=0, 0/min-luma=0/max-luma=1023/log2-max-poc-lsb=8/vui-timing-info/vui-hrd-info/slices=1/no-opt-qp-pps/no-opt-ref-list-length-pps/no-multi-pass-opt-rps/scenecut-bias=0.05/no-opt-cu-delta-qp/no-aq-motion/no-hdr/no-hdr-opt/no-dhdr10-opt/no-idr-recovery-sei/analysis-reuse-level=5/scale-factor=0/refine-intra=0/refine-inter=0/refine-mv=1/refine-ctu-distortion=0/no-limit-sao/ctu-info=0/no-lowpass-dct/refine-analysis-type=0/copy-pic=1/max-ausize-factor=1.0/no-dynamic-refine/no-single-sei/no-hevc-aq/no-svt/no-field/qp-adaptation-range=1.00
    Язык : English
    Default : Да
    Forced : Нет
    Цветовой диапазон : Limited
    Основные цвета : BT.709
    Характеристики трансфера : BT.709
    Коэффициенты матрицы : BT.709
    Аудио #1
    Идентификатор : 3
    Формат : AC-3
    Формат/Информация : Audio Coding 3
    Идентификатор кодека : A_AC3
    Продолжительность : 1 ч. 58 м.
    Вид битрейта : Постоянный
    Битрейт : 640 Кбит/сек
    Каналы : 6 каналов
    Расположение каналов : Front: L C R, Side: L R, LFE
    Частота : 48, 0 КГц
    Частота кадров : 31, 250 кадров/сек (1536 SPF)
    Битовая глубина : 16 бит
    Метод сжатия : С потерями
    Размер потока : 544 Мбайт (6%)
    Заголовок : Дубляж
    Язык : Russian
    ServiceKind/String : Complete Main
    Default : Да
    Forced : Нет
    Аудио #2
    Идентификатор : 4
    Формат : AC-3
    Формат/Информация : Audio Coding 3
    Идентификатор кодека : A_AC3
    Продолжительность : 1 ч. 58 м.
    Вид битрейта : Постоянный
    Битрейт : 640 Кбит/сек
    Каналы : 6 каналов
    Расположение каналов : Front: L C R, Side: L R, LFE
    Частота : 48, 0 КГц
    Частота кадров : 31, 250 кадров/сек (1536 SPF)
    Битовая глубина : 16 бит
    Метод сжатия : С потерями
    Размер потока : 543 Мбайт (6%)
    Заголовок : Авторский - Гаврилов
    Язык : Russian
    ServiceKind/String : Complete Main
    Default : Нет
    Forced : Нет
    Аудио #3
    Идентификатор : 5
    Формат : AC-3
    Формат/Информация : Audio Coding 3
    Идентификатор кодека : A_AC3
    Продолжительность : 1 ч. 58 м.
    Вид битрейта : Постоянный
    Битрейт : 640 Кбит/сек
    Каналы : 6 каналов
    Расположение каналов : Front: L C R, Side: L R, LFE
    Частота : 48, 0 КГц
    Частота кадров : 31, 250 кадров/сек (1536 SPF)
    Битовая глубина : 16 бит
    Метод сжатия : С потерями
    Размер потока : 544 Мбайт (6%)
    Заголовок : Авторский - Володарский
    Язык : Russian
    ServiceKind/String : Complete Main
    Default : Нет
    Forced : Нет
    Аудио #4
    Идентификатор : 6
    Формат : AC-3
    Формат/Информация : Audio Coding 3
    Идентификатор кодека : A_AC3
    Продолжительность : 1 ч. 58 м.
    Вид битрейта : Постоянный
    Битрейт : 640 Кбит/сек
    Каналы : 6 каналов
    Расположение каналов : Front: L C R, Side: L R, LFE
    Частота : 48, 0 КГц
    Частота кадров : 31, 250 кадров/сек (1536 SPF)
    Битовая глубина : 16 бит
    Метод сжатия : С потерями
    Размер потока : 544 Мбайт (6%)
    Заголовок : Original
    Язык : English
    ServiceKind/String : Complete Main
    Default : Нет
    Forced : Нет
    Текст #1
    Идентификатор : 2
    Формат : UTF-8
    Идентификатор кодека : S_TEXT/UTF8
    Идентификатор кодека/Информация : UTF-8 Plain Text
    Продолжительность : 1 ч. 49 м.
    Битрейт : 65 бит/сек
    ElementCount : 1031
    Размер потока : 52, 7 Кбайт (0%)
    Заголовок : Русские
    Язык : Russian
    Default : Нет
    Forced : Нет
    Текст #2
    Идентификатор : 7
    Формат : UTF-8
    Идентификатор кодека : S_TEXT/UTF8
    Идентификатор кодека/Информация : UTF-8 Plain Text
    Продолжительность : 1 ч. 47 м.
    Битрейт : 39 бит/сек
    ElementCount : 904
    Размер потока : 30, 6 Кбайт (0%)
    Заголовок : Full
    Язык : English
    Default : Нет
    Forced : Нет
    Меню
    00: 00: 00.000 : en: Chapter 1
    00: 07: 27.447 : en: Chapter 2
    00: 13: 31.684 : en: Chapter 3
    00: 21: 22.489 : en: Chapter 4
    00: 26: 48.105 : en: Chapter 5
    00: 31: 51.200 : en: Chapter 6
    00: 41: 28.402 : en: Chapter 7
    00: 49: 33.427 : en: Chapter 8
    00: 54: 10.413 : en: Chapter 9
    01: 00: 35.005 : en: Chapter 10
    01: 08: 09.918 : en: Chapter 11
    01: 15: 23.350 : en: Chapter 12
    01: 23: 57.740 : en: Chapter 13
    01: 34: 25.868 : en: Chapter 14
    01: 41: 04.432 : en: Chapter 15
    01: 46: 29.381 : en: Chapter 16


    Онлайн видео Петля времени



    Петля времени/Looper (2012) BDRip [H.265/1080p] [10-bit] [PR]
    Рейтинг →
     (голосов: 1, оценка 4/5, голосовать можно 1 раз )

    Другие торренты по теме:

  • Петля времени / Looper (2012) BDRip [720p] ATV скачать через торрент бесплатно
  • Петля времени / Looper (2012) BDRip [1080p] ATV скачать через торрент бесплатно
  • Петля времени (2014) WEB-DLRip [H.264] (серии 1-4 из 4) скачать через торрент бесплатно
  • Петля времени (2014) WEB-DLRip (серии 1-4 из 4) скачать через торрент бесплатно
  • Петля времени / Looper (2012) HDRip
  • Петля времени / Looper (2012) BDRip [H.265 / 1080p]
  • Петля времени / Looper (2012) BDRip [AVO]
  • Петля времени / Looper (2012) HDRip [H.264] [MP4|1920x816]


    • Комментарии (0):

      Информация

      Информация

        Посетители, находящиеся в группе Гости, не могут оставлять комментарии в данной новости.

        ↓ Меню




        ↓ Опрос

        Вы добавили сайт в закладки?
        Да
        Нет


        Популярное

        Полицейский с Рублёвки. Новогодний беспредел 2 (2019) CamRip [AD]

        (скачиваний: 1815)
        Властелин колец: Трилогия / The Lord of the Rings: Trilogy (2001,2002,2003) BDRip [H.264] [Extended Editions] скачать через торрент бесплатно

        (скачиваний: 663)
        Властелин колец / The Lord of the Rings (2001,2002,2003) BDRip [Extended Edition] [H.264 / 1080p-LQ] [Hi10P]

        (скачиваний: 655)
        Начало / Inception (2010) BDRip [H.265 / 1080p]

        (скачиваний: 629)
        Властелин колец / The Lord of the Rings (2001,2002,2003) BDRip [1080p] [Extended Edition] [Трилогия]

        (скачиваний: 607)
        Квартирник НТВ у Маргулиса. Новогодний выпуск (31.12.2019) WEB-DL [H.264 / 1080p-LQ]

        (скачиваний: 452)
        Каникулы off-line (2018) WEBRip

        (скачиваний: 432)
        Хоббит: Трилогия / The Hobbit: Trilogy (2012, 2013, 2014) BDRip [H.265 / 1080p-LQ] [10-bit] [Расширенная версия]

        (скачиваний: 396)
        Властелин колец / The Lord of the Rings (2001,2002,2003) BDRip [1080p] [Extended Edition] [Трилогия] скачать через торрент бесплатно

        (скачиваний: 264)
        Во все тяжкие / Breaking Bad (2008-2013) BDRip [H.264 / 1080p] (сезон 1-5, серии 1-62 из 62) Кубик в Кубе, LostFilm скачать через торрент бесплатно

        (скачиваний: 252)