.
Авторизация | Регистрация
bitok.xyz
» » Процесс (1979) TVRip торрент скачать бесплатно


    Процесс (1979) TVRip торрент скачать бесплатно

    Дата: 26-12-2019, 05:00 | .torrent скачали: 0

    Процесс (1979) TVRipПроизводство: СССР, Киргизфильм
    Жанр: Детектив, драма
    Режиссер: Джали Соданбек

    Актеры
    Аман Камчибеков, Огульджан Ниязбердиева, Турсун Темиркулов, Гульсара Аджибекова, Асанбек Умуралиев, Балташ Каипов, Амангельды Керимбаев, Бакен Кыдыкеева, Маргарита Киватская, Григорий Каркоцкий, Советбек Джумадылов

    Описание

    Адыла Султанова обвиняют в причастности к делу об ограблении универмага. Уверенный в своей невиновности, Адыл не сразу доверяется молодому адвокату и на какое-то время теряет надежду, но вскоре начинает понимать, что находится под защитой принципиального профессионала, который обязательно восстановит справедливость.

    Релиз от: kolman67
    Продолжительность: 01: 28: 51
    Качество видео: TVRip
    Субтитры: отсутствуют
    Артефакты: замыленный логотип канала
    Видео: Xvid, 704x528, ~2020 Kbps
    Аудио: MP3, 2 ch, 128 Kbps
    Общее
    Полное имя : Процесс (1979).avi
    Формат : AVI
    Формат/Информация : Audio Video Interleave
    Размер файла : 1, 34 Гбайт
    Продолжительность : 1 ч. 28 м.
    Общий поток : 2160 Кбит/сек
    Программа кодирования : VirtualDubMod 1.5.10.3 |www.virtualdub-fr.org|| (build 2550/release)
    Библиотека кодирования : VirtualDubMod build 2550/release
    Видео
    Идентификатор : 0
    Формат : MPEG-4 Visual
    Профиль формата : Advanced Simple@L5
    Настройки формата : BVOP2
    Параметр BVOP формата : 2
    Параметр QPel формата : Нет
    Параметр GMC формата : Без точки перехода
    Параметр матрицы формата : Default (H.263)
    Идентификатор кодека : XVID
    Идентификатор кодека/Подсказка : XviD
    Продолжительность : 1 ч. 28 м.
    Битрейт : 2020 Кбит/сек
    Ширина : 704 пикселя
    Высота : 528 пикселей
    Соотношение сторон : 4: 3
    Частота кадров : 29, 970 (30000/1001) кадров/сек
    Цветовое пространство : YUV
    Субдискретизация насыщенности : 4: 2: 0
    Битовая глубина : 8 бит
    Тип развёртки : Прогрессивная
    Метод сжатия : С потерями
    Бит/(Пиксели*Кадры) : 0.181
    Размер потока : 1, 25 Гбайт (94%)
    Библиотека кодирования : XviD 1.2.1 (UTC 2008-12-04)
    Аудио
    Идентификатор : 1
    Формат : MPEG Audio
    Версия формата : Version 1
    Профиль формата : Layer 3
    Идентификатор кодека : 55
    Идентификатор кодека/Подсказка : MP3
    Продолжительность : 1 ч. 28 м.
    Вид битрейта : Постоянный
    Битрейт : 128 Кбит/сек
    Каналы : 2 канала
    Частота : 44, 1 КГц
    Метод сжатия : С потерями
    Размер потока : 81, 4 Мбайт (6%)
    Выравнивание : Разделение по промежуткам
    Продолжительность промежутка : 33 мс. (1, 00 видеокадр)
    Время предзагрузки промежутка : 500 мс.
    Библиотека кодирования : LAME3.99r
    Настройки программы : -m s -V 4 -q 2 -lowpass 17 -b 128

    Скриншоты для ознакомления



    Все одноимённые релизы в Клубе
    Время раздачи: с 10: 00 до 21: 00 (до появления первых 3-5 скачавших)

    Процесс (1979) TVRip
    Рейтинг →
     (голосов: 1, оценка 5/5, голосовать можно 1 раз )

    Другие торренты по теме:

  • Самые громкие преступления двадцатого века. Гитлер и Нюрнбергский процесс / Great crimes and trials of the twentieth century.Hitler and the Nuremberg trials (1995) TVRip


    • Комментарии (0):

      Информация

      Информация

        Посетители, находящиеся в группе Гости, не могут оставлять комментарии в данной новости.

        ↓ Меню




        ↓ Опрос

        Вы добавили сайт в закладки?
        Да
        Нет


        Популярное

        Полицейский с Рублёвки. Новогодний беспредел 2 (2019) CamRip [AD]

        (скачиваний: 2331)
        Властелин колец: Трилогия / The Lord of the Rings: Trilogy (2001,2002,2003) BDRip [H.264] [Extended Editions] скачать через торрент бесплатно

        (скачиваний: 674)
        Властелин колец / The Lord of the Rings (2001,2002,2003) BDRip [Extended Edition] [H.264 / 1080p-LQ] [Hi10P]

        (скачиваний: 661)
        Начало / Inception (2010) BDRip [H.265 / 1080p]

        (скачиваний: 647)
        Властелин колец / The Lord of the Rings (2001,2002,2003) BDRip [1080p] [Extended Edition] [Трилогия]

        (скачиваний: 608)
        Квартирник НТВ у Маргулиса. Новогодний выпуск (31.12.2019) WEB-DL [H.264 / 1080p-LQ]

        (скачиваний: 456)
        Каникулы off-line (2018) WEBRip

        (скачиваний: 438)
        Хоббит: Трилогия / The Hobbit: Trilogy (2012, 2013, 2014) BDRip [H.265 / 1080p-LQ] [10-bit] [Расширенная версия]

        (скачиваний: 398)
        Властелин колец / The Lord of the Rings (2001,2002,2003) BDRip [1080p] [Extended Edition] [Трилогия] скачать через торрент бесплатно

        (скачиваний: 281)
        Во все тяжкие / Breaking Bad (2008-2013) BDRip [H.264 / 1080p] (сезон 1-5, серии 1-62 из 62) Кубик в Кубе, LostFilm скачать через торрент бесплатно

        (скачиваний: 256)