.
Авторизация | Регистрация
bitok.xyz
» » Свисток / Bigil (2019) WEBRip [Tam / RU Sub] торрент скачать бесплатно


    Свисток / Bigil (2019) WEBRip [Tam / RU Sub] торрент скачать бесплатно

    Дата: 26-12-2019, 05:00 | .torrent скачали: 4

    Свисток / Bigil (2019) WEBRip [Tam / RU Sub]Производство: Индия, AGS Entertainment
    Жанр: спорт, драма, боевик
    Режиссер: Атли
    Продюсер: Kalpathi S. Agoram, Kalpathi S. Ganesh, Kalpathi S. Suresh

    Актеры
    Виджай, Наянтара, А.Р. Рахман, Джеки Шрофф, Атли, Йоги Бабу, Amritha Aiyer, Арджан Баджва, Varsha Bollamma, Gayathri Reddy

    Описание

    В центре повествования находится бывший профессиональный футболист Райаппан. Он уже завершил свою славную карьеру, и теперь пытается осуществить одну давнюю мечту своего близкого друга. Параллельно с этим главный герой пытается найти людей, которые жестоко расправились с его отцом несколько лет тому назад. Отец Райаппана был гангстером, однако он старался сделать всё возможное для того, чтобы сын не пошёл по его стопам. Молодой человек получал всю необходимую поддержку со стороны семьи, но внезапно произошедшая трагедия перечеркнула все его планы. Сможет ли бывший футболист отыскать убийц своего отца и заставить их заплатить за содеянное?

    Премьера (мир): 24 октября 2019
    Релиз от: Khushi Khiladi
    Продолжительность: 02: 57: 33
    Качество видео: WEBRip
    Перевод: Отсутствует
    Язык озвучки: Тамильский
    Субтитры: Русские (вшитые, не отключаемые)
    Видео: Xvid, 720x306, ~1400 Kbps
    Аудио: AAC, 2 ch, 208 Kbps
    Общее
    Полное имя : I: bgl.2019.WebRip.avi
    Формат : AVI
    Формат/Информация : Audio Video Interleave
    Профиль формата : OpenDML
    Размер файла : 2, 01 Гбайт
    Продолжительность : 2 ч. 57 м.
    Режим общего битрейта : Переменный
    Общий поток : 1621 Кбит/сек
    Программа кодирования : Lavf57.71.100
    Видео
    Идентификатор : 0
    Формат : MPEG-4 Visual
    Профиль формата : Advanced Simple@L5
    Параметр BVOP формата : Нет
    Параметр QPel формата : Нет
    Параметр GMC формата : Без точки перехода
    Параметр матрицы формата : Default (H.263)
    Идентификатор кодека : XVID
    Идентификатор кодека/Подсказка : XviD
    Продолжительность : 2 ч. 57 м.
    Битрейт : 1400 Кбит/сек
    Ширина : 720 пикселей
    Высота : 306 пикселей
    Соотношение сторон : 2, 35: 1
    Частота кадров : 25, 000 кадров/сек
    Цветовое пространство : YUV
    Субдискретизация насыщенности : 4: 2: 0
    Битовая глубина : 8 бит
    Тип развёртки : Прогрессивная
    Метод сжатия : С потерями
    Бит/(Пиксели*Кадры) : 0.254
    Размер потока : 1, 74 Гбайт (86%)
    Библиотека кодирования : XviD 67
    Аудио
    Идентификатор : 1
    Формат : AAC
    Формат/Информация : Advanced Audio Codec
    Версия формата : Version 4
    Профиль формата : LC
    Режим смешивания : ADTS
    Идентификатор кодека : FF
    Продолжительность : 2 ч. 57 м.
    Вид битрейта : Переменный
    Битрейт : 208 Кбит/сек
    Каналы : 2 канала
    Расположение каналов : Front: L R
    Частота : 44, 1 КГц
    Частота кадров : 43, 066 кадра/сек (1024 spf)
    Метод сжатия : С потерями
    Размер потока : 264 Мбайт (13%)
    Выравнивание : Соединение по промежуткам
    Продолжительность промежутка : 23 мс. (0, 58 видеокадр)

    Скриншоты для ознакомления



    Все одноименные релизы в Клубе
    Время раздачи: Пн-Пт с 18: 00 до 22: 00, Вс с 09: 00 до 22: 30 (до появления первых 3-5 скачавших)

    Онлайн видео Свисток



    Свисток/Bigil (2019) WEBRip [Tam/RU Sub]
    Рейтинг →
     (голосов: 1, оценка 4/5, голосовать можно 1 раз )

    Другие торренты по теме:

  • Последний Свисток / The Last Whistle (2019) WEB-DLRip [H.264 / 720p-LQ] [MVO] [AD]


    • Комментарии (0):

      Информация

      Информация

        Посетители, находящиеся в группе Гости, не могут оставлять комментарии в данной новости.

        ↓ Меню




        ↓ Опрос

        Вы добавили сайт в закладки?
        Да
        Нет


        Популярное