.
Авторизация | Регистрация
bitok.xyz
» » Бар «На грудь» (2018) WEBRip [H.264 / 2160p-LQ] (сезон 1, серии 1-8 из 8) торрент скачать бесплатно


    Бар «На грудь» (2018) WEBRip [H.264 / 2160p-LQ] (сезон 1, серии 1-8 из 8) торрент скачать бесплатно

    Дата: 26-12-2019, 05:00 | .torrent скачали: 2

    Бар «На грудь» (2018) WEBRip [H.264 / 2160p-LQ] (сезон 1, серии 1-8 из 8)Производство: Россия/Киностудия МИМ по заказу Rutube
    Жанр: комедия
    Режиссер: Ирина Вилкова

    Актеры
    Денис Пьянов, Вера Фомина, Антон Сухарев, Кирилл Полухин, Татьяна Малыщицкая, Александр Баширов, Анна Иванина, Дмитрий Аверин, Ирина Вилкова, Анна Жмаева и др.

    Описание

    Вновь обремененные насущными проблемами, жители Петербурга приходят в уже родной им бар — На грудь, утолить свою тоску и обсудить воображаемую безнадежность бытия. Ведь там их всегда выслушают и… нальют. Страдать становится куда приятней, а посетителей со своими душещипательными историями — все больше.

    Возраст: 18+ (зрителям, достигшим 18 лет. запрещено для детей)
    Продолжительность: ~00: 10: 00 серия
    Качество видео: WEBRip
    Внимание! Присутствует ненормативная лексика!
    Видео: AVC/H.264, 3840x2160, ~5715 Kbps
    Аудио: AC3, 2 ch, 192 Kbps
    Общее
    Уникальный идентификатор : 261695978161418241004878792721448549185 (0xC4E0CFE39A11B196DC190A157553BB41)
    Полное имя : D: Бар. На грудь (2018).by.АлехаndrБар. На грудь. 1 сезон любимого сериала. 1 серия.by.Алехаndr .mkv
    Формат : Matroska
    Версия формата : Version 4
    Размер файла : 325 Мбайт
    Продолжительность : 7 м. 40 с.
    Общий поток : 5910 Кбит/сек
    Название фильма : Бар. На грудь. 1 сезон любимого сериала. 1 серия.by.Алехаndr
    Дата кодирования : UTC 2019-12-24 16: 03: 20
    Программа кодирования : mkvmerge v41.0.0 (\'Smarra\') 32-bit
    Библиотека кодирования : libebml v1.3.9 + libmatroska v1.5.2/Lavf57.71.100
    Видео
    Идентификатор : 1
    Формат : AVC
    Формат/Информация : Advanced Video Codec
    Профиль формата : Main@L5.1
    Настройки формата : CABAC/1 Ref Frames
    Параметр CABAC формата : Да
    Параметр RefFrames формата : 1 кадр
    Параметр GOP формата : M=1, N=25
    Идентификатор кодека : V_MPEG4/ISO/AVC
    Продолжительность : 7 м. 40 с.
    Битрейт : 5715 Кбит/сек
    Ширина : 3840 пикселей
    Высота : 2160 пикселей
    Соотношение сторон : 16: 9
    Режим частоты кадров : Постоянный
    Частота кадров : 25, 000 кадров/сек
    Цветовое пространство : YUV
    Субдискретизация насыщенности : 4: 2: 0
    Битовая глубина : 8 бит
    Тип развёртки : Прогрессивная
    Бит/(Пиксели*Кадры) : 0.028
    Размер потока : 314 Мбайт (97%)
    Default : Да
    Forced : Нет
    Аудио
    Идентификатор : 2
    Формат : AC-3
    Формат/Информация : Audio Coding 3
    Коммерческое название : Dolby Digital
    Идентификатор кодека : A_AC3
    Продолжительность : 7 м. 40 с.
    Вид битрейта : Постоянный
    Битрейт : 192 Кбит/сек
    Каналы : 2 канала
    ChannelLayout : L R
    Частота : 48, 0 КГц
    Частота кадров : 31, 250 кадров/сек (1536 SPF)
    Метод сжатия : С потерями
    Размер потока : 10, 5 Мбайт (3%)
    ServiceKind/String : Complete Main
    Default : Да
    Forced : Нет


    Онлайн видео Бар «На грудь» (2018) WEBRip [H.264



    Бар «На грудь» (2018) WEBRip [H.264/2160p-LQ] (сезон 1, серии 1-8 из 8)
    Рейтинг →
     (голосов: 1, оценка 3/5, голосовать можно 1 раз )

    Другие торренты по теме:

  • На грудь (2017) WEBRip [H.264 / 1080p-LQ]
  • Бар. На грудь (2018) WEBRip [H.264 / 720p-LQ] (серии 1-2 из ) (обновляемая)
  • Бар «На грудь» (2019) WEBRip [H.264 / 1080p-LQ] (сезон 2, серии 1-5 из 8) (обновляемая)
  • Бар «На грудь» (2019) WEBRip (сезон 2, серии 1-5 из 8) (обновляемая)
  • Бар «На грудь» (2018) WEBRip (сезон 1, серии 1-8 из 8)


    • Комментарии (0):

      Информация

      Информация

        Посетители, находящиеся в группе Гости, не могут оставлять комментарии в данной новости.

        ↓ Меню




        ↓ Опрос

        Вы добавили сайт в закладки?
        Да
        Нет


        Популярное