.
Авторизация | Регистрация
bitok.xyz
» » Затерянные в космосе / Lost in Space (2019) WEBRip [H.264 / 1080p-LQ] (сезон 2, серии 1 из 10) (обновляемая) HDRezka Studio торрент скачать бесплатно


    Затерянные в космосе / Lost in Space (2019) WEBRip [H.264 / 1080p-LQ] (сезон 2, серии 1 из 10) (обновляемая) HDRezka Studio торрент скачать бесплатно

    Дата: 26-12-2019, 05:00 | .torrent скачали: 3

    Затерянные в космосе / Lost in Space (2019) WEBRip [H.264 / 1080p-LQ] (сезон 2, серии 1 из 10) (обновляемая) HDRezka StudioПроизводство: США/Legendary Television, Synthesis Entertainment, Applebox Pictures
    Жанр: фантастика, драма, детектив, приключения, семейный
    Режиссер: Тим Соутэм, Стивен Серджик, Нил Маршалл

    Актеры
    Молли Паркер, Тоби Стивенс, Макс Дженкинс, Тейлор Расселл, Мина Сандвол, Игнасио Серричио, Паркер Поузи, Брайан Стил, Раза Джеффри, Амелия Берстин

    Описание

    2046 год. Космический корабль теряется в космосе и терпит крушение на планете на расстоянии нескольких световых лет от планируемого места назначения. Его обитатели, семья Робинсонов, вынуждены приспособиться и выжить в новых условиях.

    Продолжительность: ~00: 50: 00 серия
    Качество видео: WEBRip
    Перевод: Многоголосый профессиональный(HDRezka Studio)
    Видео: AVC/H.264, 1920x1080 (16: 9), ~5970 Kbps
    Аудио: AC3, 2 ch, 192 Kbps - русский
    Общее
    Уникальный идентификатор : 71536423979262981456884545082598128805 (0x35D16A02D32BD9BC7C67DCDEEF547CA5)
    Полное имя : F: Lost.in.Space.S02E01.WEBRip.mkv
    Формат : Matroska
    Версия формата : Version 4
    Размер файла : 2, 12 Гбайт
    Продолжительность : 49 м. 14 с.
    Режим общего битрейта : Переменный
    Общий поток : 6164 Кбит/сек
    Дата кодирования : UTC 2019-12-24 23: 31: 20
    Программа кодирования : mkvmerge v28.2.0 (\'The Awakening\') 64-bit
    Библиотека кодирования : libebml v1.3.6 + libmatroska v1.4.9
    Видео
    Идентификатор : 1
    Формат : AVC
    Формат/Информация : Advanced Video Codec
    Профиль формата : High@L4.1
    Настройки формата : CABAC/1 Ref Frames
    Параметр CABAC формата : Да
    Параметр RefFrames формата : 1 кадр
    Идентификатор кодека : V_MPEG4/ISO/AVC
    Продолжительность : 49 м. 14 с.
    Вид битрейта : Переменный
    Битрейт : 5970 Кбит/сек
    Максимальный битрейт : 2000 Кбит/сек
    Ширина : 1920 пикселей
    Высота : 1080 пикселей
    Соотношение сторон : 16: 9
    Режим частоты кадров : Постоянный
    Частота кадров : 23, 976 (24000/1001) кадра/сек
    Цветовое пространство : YUV
    Субдискретизация насыщенности : 4: 2: 0
    Битовая глубина : 8 бит
    Тип развёртки : Прогрессивная
    Бит/(Пиксели*Кадры) : 0.120
    Размер потока : 2, 05 Гбайт (97%)
    Default : Да
    Forced : Нет
    Аудио
    Идентификатор : 2
    Формат : AC-3
    Формат/Информация : Audio Coding 3
    Коммерческое название : Dolby Digital
    Идентификатор кодека : A_AC3
    Продолжительность : 49 м. 13 с.
    Вид битрейта : Постоянный
    Битрейт : 192 Кбит/сек
    Каналы : 2 канала
    ChannelLayout : L R
    Частота : 48, 0 КГц
    Частота кадров : 31, 250 кадров/сек (1536 SPF)
    Метод сжатия : С потерями
    Размер потока : 67, 6 Мбайт (3%)
    Язык : Russian
    ServiceKind/String : Complete Main
    Default : Да
    Forced : Нет

    Скриншоты для ознакомления



    Все одноименные релизы в Клубе
    Время раздачи: 24/7 (круглосуточно) (до появления первых 3-5 скачавших)

    Онлайн видео Затерянные в космосе



    Затерянные в космосе/Lost in Space (2019) WEBRip [H.264/1080p-LQ] (сезон 2, серии 1 из 10) (обновляемая) HDRezka Studio
    Рейтинг →
     (голосов: 1, оценка 4/5, голосовать можно 1 раз )

    Другие торренты по теме:

  • Затерянные в космосе / Lost in Space (1998) BDRip [H.264]
  • Затерянные в космосе / Lost in Space (2018) WEBRip [H.264 / 1080p-LQ] (сезон 1, серии 1-5 из 10) OMSKBIRD (обновляемая) [AD]
  • Затерянные в космосе / Lost in Space (2018) WEBRip [H.264 / 1080p-LQ] (сезон 1, серии 1-10 из 10) IdeaFilm [AD]
  • Затерянные в космосе / Lost in Space (2018) WEBRip [H.264 / 1080p-LQ] (сезон 1, серии 1-10 из 10) TVShows
  • Затерянные в космосе / Lost in Space (2019) WEBRip [H.264 / 1080p-LQ] (сезон 2, серии 1 из 10) LakeFilms [AD] (обновляемая)
  • Затерянные в космосе / Lost in Space (2018) WEB-DL [H.265 / 2160p] [HDR, 10-bit] (сезон 1, серии 1-10 из 10) [Пифагор]
  • Затерянные в космосе / Lost in Space (2019) WEBRip (сезон 2, серии 1 из 10) LostFilm (обновляемая)
  • Затерянные в космосе / Lost in Space (2018) WEBRip (сезон 1, серии 1-10 из 10) LostFilm


    • Комментарии (0):

      Информация

      Информация

        Посетители, находящиеся в группе Гости, не могут оставлять комментарии в данной новости.

        ↓ Меню




        ↓ Опрос

        Вы добавили сайт в закладки?
        Да
        Нет


        Популярное