.
Авторизация | Регистрация
bitok.xyz
» » Видеть / See (2019) WEB-DL [H.264 / 1080p-LQ] (сезон 1, серии 1-8 из 8) Lostfilm.TV, Кубик в Кубе торрент скачать бесплатно


    Видеть / See (2019) WEB-DL [H.264 / 1080p-LQ] (сезон 1, серии 1-8 из 8) Lostfilm.TV, Кубик в Кубе торрент скачать бесплатно

    Дата: 26-12-2019, 05:00 | .torrent скачали: 0

    Видеть / See (2019) WEB-DL [H.264 / 1080p-LQ] (сезон 1, серии 1-8 из 8) Lostfilm.TV, Кубик в КубеПроизводство: США/Chernin Entertainment, Endeavor Content
    Жанр: фантастика, боевик, драма
    Режиссер: Френсис Лоуренс, Андерс Энгстрем, Стивен Серджик

    Актеры
    Элфри Вудард, Джейсон Момоа, Сильвия Хукс, Кристиан Камарго, Арчи Мадекве, Неста Купер, Ядира Гевара-Прип, Джош Блэкер, Кристиан Слоун и др.

    Описание

    В далёком будущем человеческая раса полностью лишилась зрения. Чтобы выжить, людям пришлось найти новый способ сосуществовать, строить и добывать пищу. Всё меняется, когда в семье бесстрашного воина Бабы Восса рождаются зрячие близнецы. Их появление рискует нарушить хрупкий баланс нового мира и ввергнуть успокоившуюся цивилизацию в хаос.

    Дата мировой премьеры: 1 ноября 2019
    Релиз от: TeamHD
    Продолжительность: ~00: 55: 00 серия
    Качество видео: WEB-DL
    Перевод: Многоголосый профессиональный -Lostfilm.TV
    двухголосый профессиональный -Кубик в Кубе
    Субтитры: русские (Forced, Full) русские (ASS, SRT, Full), украинские, английские (Full, SDH) и др.
    Видео: AVC/H.264, 1920x910, ~9870 Kbps
    Аудио #1: DTS DTS 5.1, 768 Kbps - русский, Lostfilm.TV
    Аудио #2: DTS DTS 5.1, 768 Kbps - русский, Кубик в Кубе
    Аудио #3: E-AC3 Atmos, 768 Kbps - английский
    Общее
    Уникальный идентификатор : 160853669768374389373929058286113693253 (0x79034A38AA665B4C5D7D886163449E45)
    Полное имя : /Volumes/HDD/Movies/NNMC/See.S01.WEB-DL.1080p.TeamHD/See.S01E01.Godflame.1080p.ATVP.WEB-DL.2xRus.DTS.TeamHD.mkv
    Формат : Matroska
    Версия формата : Version 4
    Размер файла : 4, 90 Гбайт
    Продолжительность : 57 м. 30 с.
    Общий поток : 12, 2 Мбит/сек
    Название фильма : See 1x01 Godflame (2019) - Release for TeamHD
    Дата кодирования : UTC 2019-12-24 16: 19: 22
    Программа кодирования : mkvmerge v41.0.0 (\'Smarra\') 64-bit
    Библиотека кодирования : libebml v1.3.9 + libmatroska v1.5.2
    Обложка : Yes
    Attachments : Candara_0.ttf/tahoma.ttf/tahomabd.ttf/cover.jpg/cover_land.png/small_cover_land.jpg/small_cover_land.png
    Видео
    Идентификатор : 1
    Формат : AVC
    Формат/Информация : Advanced Video Codec
    Профиль формата : High@L4
    Настройки формата : CABAC/4 Ref Frames
    Параметр CABAC формата : Да
    Параметр ReFrames формата : 4 кадра
    Идентификатор кодека : V_MPEG4/ISO/AVC
    Продолжительность : 57 м. 30 с.
    Битрейт : 9871 Кбит/сек
    Ширина : 1920 пикселей
    Высота : 910 пикселей
    Соотношение сторон : 2, 110
    Режим частоты кадров : Постоянный
    Частота кадров : 23, 976 (24000/1001) кадра/сек
    Цветовое пространство : YUV
    Субдискретизация насыщенности : 4: 2: 0
    Битовая глубина : 8 бит
    Тип развёртки : Прогрессивная
    Бит/(Пиксели*Кадры) : 0.236
    Размер потока : 3, 97 Гбайт (81%)
    Заголовок : See.S01E01.Godflame.REPACK2.1080p.ATVP.WEB-DL.DDP5.1.H.264-CasStudio
    Язык : English
    Default : Да
    Forced : Нет
    Цветовой диапазон : Limited
    Основные цвета : BT.709
    Характеристики трансфера : BT.709
    Коэффициенты матрицы : BT.709
    Аудио #1
    Идентификатор : 2
    Формат : DTS
    Формат/Информация : Digital Theater Systems
    Идентификатор кодека : A_DTS
    Продолжительность : 57 м. 30 с.
    Вид битрейта : Постоянный
    Битрейт : 768 Кбит/сек
    Каналы : 6 каналов
    Channel layout : C L R Ls Rs LFE
    Частота : 48, 0 КГц
    Частота кадров : 93, 750 кадра/сек (512 SPF)
    Битовая глубина : 24 бит
    Метод сжатия : С потерями
    Размер потока : 316 Мбайт (6%)
    Заголовок : DTS 5.1 @ 768 kbps @ Lostfilm.TV @ Многоголосый закадровый
    Язык : Russian
    Default : Да
    Forced : Да
    Аудио #2
    Идентификатор : 3
    Формат : DTS
    Формат/Информация : Digital Theater Systems
    Идентификатор кодека : A_DTS
    Продолжительность : 57 м. 30 с.
    Вид битрейта : Постоянный
    Битрейт : 768 Кбит/сек
    Каналы : 6 каналов
    Channel layout : C L R Ls Rs LFE
    Частота : 48, 0 КГц
    Частота кадров : 93, 750 кадра/сек (512 SPF)
    Битовая глубина : 24 бит
    Метод сжатия : С потерями
    Размер потока : 316 Мбайт (6%)
    Заголовок : DTS 5.1 @ 768 kbps @ Кубик в Кубе @ Двухголосый закадровый
    Язык : Russian
    Default : Нет
    Forced : Нет
    Аудио #3
    Идентификатор : 4
    Формат : E-AC-3 JOC
    Формат/Информация : Enhanced AC-3 with Joint Object Coding
    Коммерческое название : Dolby Digital Plus with Dolby Atmos
    Идентификатор кодека : A_EAC3
    Продолжительность : 57 м. 30 с.
    Вид битрейта : Постоянный
    Битрейт : 768 Кбит/сек
    Каналы : 6 каналов
    Channel layout : L R C LFE Ls Rs
    Частота : 48, 0 КГц
    Частота кадров : 31, 250 кадров/сек (1536 SPF)
    Метод сжатия : С потерями
    Размер потока : 316 Мбайт (6%)
    Заголовок : Dolby Digital Plus Atmos 5.1 @ 768 kbps
    Язык : English
    Service kind : Complete Main
    Default : Нет
    Forced : Нет
    Complexity index : 16
    Number of dynamic objects : 15
    Bed channel count : 1 канал
    Bed channel configuration : LFE
    Текст #1
    Идентификатор : 5
    Формат : ASS
    Идентификатор кодека : S_TEXT/ASS
    Идентификатор кодека/Информация : Advanced Sub Station Alpha
    Продолжительность : 56 м. 15 с.
    Битрейт : 2 бит/сек
    Count of elements : 8
    Метод сжатия : Без потерь
    Размер потока : 1, 22 Кбайт (0%)
    Заголовок : ASS @ Forced
    Язык : Russian
    Default : Да
    Forced : Да
    Текст #2
    Идентификатор : 6
    Формат : UTF-8
    Идентификатор кодека : S_TEXT/UTF8
    Идентификатор кодека/Информация : UTF-8 Plain Text
    Продолжительность : 56 м. 15 с.
    Битрейт : 1 бит/сек
    Count of elements : 8
    Размер потока : 656 байт (0%)
    Заголовок : SRT @ Forced
    Язык : Russian
    Default : Нет
    Forced : Нет
    Текст #3
    Идентификатор : 7
    Формат : ASS
    Идентификатор кодека : S_TEXT/ASS
    Идентификатор кодека/Информация : Advanced Sub Station Alpha
    Продолжительность : 56 м. 32 с.
    Битрейт : 82 бит/сек
    Count of elements : 475
    Метод сжатия : Без потерь
    Размер потока : 34, 1 Кбайт (0%)
    Заголовок : ASS @ Full @ Apple TV+
    Язык : Russian
    Default : Нет
    Forced : Нет
    Текст #4
    Идентификатор : 8
    Формат : UTF-8
    Идентификатор кодека : S_TEXT/UTF8
    Идентификатор кодека/Информация : UTF-8 Plain Text
    Продолжительность : 56 м. 32 с.
    Битрейт : 60 бит/сек
    Count of elements : 477
    Размер потока : 25, 2 Кбайт (0%)
    Заголовок : SRT @ Full
    Язык : Russian
    Default : Нет
    Forced : Нет
    Текст #5
    Идентификатор : 9
    Формат : UTF-8
    Идентификатор кодека : S_TEXT/UTF8
    Идентификатор кодека/Информация : UTF-8 Plain Text
    Продолжительность : 56 м. 32 с.
    Битрейт : 57 бит/сек
    Count of elements : 496
    Размер потока : 23, 6 Кбайт (0%)
    Заголовок : SRT @ Full
    Язык : Ukrainian
    Default : Нет
    Forced : Нет
    Текст #6
    Идентификатор : 10
    Формат : UTF-8
    Идентификатор кодека : S_TEXT/UTF8
    Идентификатор кодека/Информация : UTF-8 Plain Text
    Продолжительность : 54 м. 54 с.
    Битрейт : 35 бит/сек
    Count of elements : 487
    Размер потока : 14, 3 Кбайт (0%)
    Заголовок : SRT @ Full
    Язык : English
    Default : Нет
    Forced : Нет
    Текст #7
    Идентификатор : 11
    Формат : UTF-8
    Идентификатор кодека : S_TEXT/UTF8
    Идентификатор кодека/Информация : UTF-8 Plain Text
    Продолжительность : 55 м. 44 с.
    Битрейт : 41 бит/сек
    Count of elements : 601
    Размер потока : 16, 8 Кбайт (0%)
    Заголовок : SRT @ Full @ SDH
    Язык : English
    Default : Нет
    Forced : Нет
    Текст #8
    Идентификатор : 12
    Формат : UTF-8
    Идентификатор кодека : S_TEXT/UTF8
    Идентификатор кодека/Информация : UTF-8 Plain Text
    Продолжительность : 56 м. 32 с.
    Битрейт : 50 бит/сек
    Count of elements : 495
    Размер потока : 20, 7 Кбайт (0%)
    Заголовок : SRT @ Full
    Язык : Arabic
    Default : Нет
    Forced : Нет
    Текст #9
    Идентификатор : 13
    Формат : UTF-8
    Идентификатор кодека : S_TEXT/UTF8
    Идентификатор кодека/Информация : UTF-8 Plain Text
    Продолжительность : 56 м. 32 с.
    Битрейт : 56 бит/сек
    Count of elements : 485
    Размер потока : 23, 3 Кбайт (0%)
    Заголовок : SRT @ Full
    Язык : Bulgarian
    Default : Нет
    Forced : Нет
    Текст #10
    Идентификатор : 14
    Формат : UTF-8
    Идентификатор кодека : S_TEXT/UTF8
    Идентификатор кодека/Информация : UTF-8 Plain Text
    Продолжительность : 56 м. 32 с.
    Битрейт : 35 бит/сек
    Count of elements : 496
    Размер потока : 14, 7 Кбайт (0%)
    Заголовок : SRT @ Full @ Cantonese (Traditional)
    Язык : Chinese
    Default : Нет
    Forced : Нет
    Текст #11
    Идентификатор : 15
    Формат : UTF-8
    Идентификатор кодека : S_TEXT/UTF8
    Идентификатор кодека/Информация : UTF-8 Plain Text
    Продолжительность : 56 м. 32 с.
    Битрейт : 32 бит/сек
    Count of elements : 495
    Размер потока : 13, 6 Кбайт (0%)
    Заголовок : SRT @ Full @ Chinese (Simplified)
    Язык : Chinese
    Default : Нет
    Forced : Нет
    Текст #12
    Идентификатор : 16
    Формат : UTF-8
    Идентификатор кодека : S_TEXT/UTF8
    Идентификатор кодека/Информация : UTF-8 Plain Text
    Продолжительность : 56 м. 32 с.
    Битрейт : 33 бит/сек
    Count of elements : 496
    Размер потока : 13, 7 Кбайт (0%)
    Заголовок : SRT @ Full @ Chinese (Traditional)
    Язык : Chinese
    Default : Нет
    Forced : Нет
    Текст #13
    Идентификатор : 17
    Формат : UTF-8
    Идентификатор кодека : S_TEXT/UTF8
    Идентификатор кодека/Информация : UTF-8 Plain Text
    Продолжительность : 56 м. 32 с.
    Битрейт : 33 бит/сек
    Count of elements : 495
    Размер потока : 14, 0 Кбайт (0%)
    Заголовок : SRT @ Full
    Язык : Czech
    Default : Нет
    Forced : Нет
    Текст #14
    Идентификатор : 18
    Формат : UTF-8
    Идентификатор кодека : S_TEXT/UTF8
    Идентификатор кодека/Информация : UTF-8 Plain Text
    Продолжительность : 56 м. 32 с.
    Битрейт : 36 бит/сек
    Count of elements : 495
    Размер потока : 15, 0 Кбайт (0%)
    Заголовок : SRT @ Full
    Язык : Danish
    Default : Нет
    Forced : Нет
    Текст #15
    Идентификатор : 19
    Формат : UTF-8
    Идентификатор кодека : S_TEXT/UTF8
    Идентификатор кодека/Информация : UTF-8 Plain Text
    Продолжительность : 55 м. 15 с.
    Битрейт : 36 бит/сек
    Count of elements : 488
    Размер потока : 14, 8 Кбайт (0%)
    Заголовок : SRT @ Full
    Язык : Dutch
    Default : Нет
    Forced : Нет
    Текст #16
    Идентификатор : 20
    Формат : UTF-8
    Идентификатор кодека : S_TEXT/UTF8
    Идентификатор кодека/Информация : UTF-8 Plain Text
    Продолжительность : 56 м. 32 с.
    Битрейт : 34 бит/сек
    Count of elements : 495
    Размер потока : 14, 2 Кбайт (0%)
    Заголовок : SRT @ Full
    Язык : Estonian
    Default : Нет
    Forced : Нет
    Текст #17
    Идентификатор : 21
    Формат : UTF-8
    Идентификатор кодека : S_TEXT/UTF8
    Идентификатор кодека/Информация : UTF-8 Plain Text
    Продолжительность : 56 м. 32 с.
    Битрейт : 33 бит/сек
    Count of elements : 491
    Размер потока : 13, 9 Кбайт (0%)
    Заголовок : SRT @ Full
    Язык : Finnish
    Default : Нет
    Forced : Нет
    Текст #18
    Идентификатор : 22
    Формат : UTF-8
    Идентификатор кодека : S_TEXT/UTF8
    Идентификатор кодека/Информация : UTF-8 Plain Text
    Продолжительность : 56 м. 14 с.
    Битрейт : 36 бит/сек
    Count of elements : 573
    Размер потока : 15, 0 Кбайт (0%)
    Заголовок : SRT @ Full @ French (Canada)
    Язык : French
    Default : Нет
    Forced : Нет
    Текст #19
    Идентификатор : 23
    Формат : UTF-8
    Идентификатор кодека : S_TEXT/UTF8
    Идентификатор кодека/Информация : UTF-8 Plain Text
    Продолжительность : 54 м. 21 с.
    Битрейт : 37 бит/сек
    Count of elements : 572
    Размер потока : 15, 0 Кбайт (0%)
    Заголовок : SRT @ Full @ French (France)
    Язык : French
    Default : Нет
    Forced : Нет
    Текст #20
    Идентификатор : 24
    Формат : UTF-8
    Идентификатор кодека : S_TEXT/UTF8
    Идентификатор кодека/Информация : UTF-8 Plain Text
    Продолжительность : 54 м. 37 с.
    Битрейт : 41 бит/сек
    Count of elements : 502
    Размер потока : 16, 8 Кбайт (0%)
    Заголовок : SRT @ Full
    Язык : German
    Default : Нет
    Forced : Нет
    Текст #21
    Идентификатор : 25
    Формат : UTF-8
    Идентификатор кодека : S_TEXT/UTF8
    Идентификатор кодека/Информация : UTF-8 Plain Text
    Продолжительность : 55 м. 16 с.
    Битрейт : 69 бит/сек
    Count of elements : 492
    Размер потока : 28, 0 Кбайт (0%)
    Заголовок : SRT @ Full
    Язык : Greek
    Default : Нет
    Forced : Нет
    Текст #22
    Идентификатор : 26
    Формат : UTF-8
    Идентификатор кодека : S_TEXT/UTF8
    Идентификатор кодека/Информация : UTF-8 Plain Text
    Продолжительность : 56 м. 32 с.
    Битрейт : 49 бит/сек
    Count of elements : 496
    Размер потока : 20, 6 Кбайт (0%)
    Заголовок : SRT @ Full
    Язык : Hebrew
    Default : Нет
    Forced : Нет
    Текст #23
    Идентификатор : 27
    Формат : UTF-8
    Идентификатор кодека : S_TEXT/UTF8
    Идентификатор кодека/Информация : UTF-8 Plain Text
    Продолжительность : 56 м. 32 с.
    Битрейт : 94 бит/сек
    Count of elements : 496
    Размер потока : 39, 1 Кбайт (0%)
    Заголовок : SRT @ Full
    Язык : Hindi
    Default : Нет
    Forced : Нет
    Текст #24
    Идентификатор : 28
    Формат : UTF-8
    Идентификатор кодека : S_TEXT/UTF8
    Идентификатор кодека/Информация : UTF-8 Plain Text
    Продолжительность : 56 м. 32 с.
    Битрейт : 36 бит/сек
    Count of elements : 493
    Размер потока : 15, 3 Кбайт (0%)
    Заголовок : SRT @ Full
    Язык : Hungarian
    Default : Нет
    Forced : Нет
    Текст #25
    Идентификатор : 29
    Формат : UTF-8
    Идентификатор кодека : S_TEXT/UTF8
    Идентификатор кодека/Информация : UTF-8 Plain Text
    Продолжительность : 56 м. 32 с.
    Битрейт : 37 бит/сек
    Count of elements : 495
    Размер потока : 15, 5 Кбайт (0%)
    Заголовок : SRT @ Full
    Язык : Indonesian
    Default : Нет
    Forced : Нет
    Текст #26
    Идентификатор : 30
    Формат : UTF-8
    Идентификатор кодека : S_TEXT/UTF8
    Идентификатор кодека/Информация : UTF-8 Plain Text
    Продолжительность : 55 м. 16 с.
    Битрейт : 37 бит/сек
    Count of elements : 489
    Размер потока : 15, 2 Кбайт (0%)
    Заголовок : SRT @ Full
    Язык : Italian
    Default : Нет
    Forced : Нет
    Текст #27
    Идентификатор : 31
    Формат : UTF-8
    Идентификатор кодека : S_TEXT/UTF8
    Идентификатор кодека/Информация : UTF-8 Plain Text
    Продолжительность : 56 м. 20 с.
    Битрейт : 33 бит/сек
    Count of elements : 476
    Размер потока : 13, 8 Кбайт (0%)
    Заголовок : SRT @ Full
    Язык : Japanese
    Default : Нет
    Forced : Нет
    Текст #28
    Идентификатор : 32
    Формат : UTF-8
    Идентификатор кодека : S_TEXT/UTF8
    Идентификатор кодека/Информация : UTF-8 Plain Text
    Продолжительность : 56 м. 32 с.
    Битрейт : 34 бит/сек
    Count of elements : 495
    Размер потока : 14, 5 Кбайт (0%)
    Заголовок : SRT @ Full
    Язык : Latvian
    Default : Нет
    Forced : Нет
    Текст #29
    Идентификатор : 33
    Формат : UTF-8
    Идентификатор кодека : S_TEXT/UTF8
    Идентификатор кодека/Информация : UTF-8 Plain Text
    Продолжительность : 56 м. 32 с.
    Битрейт : 35 бит/сек
    Count of elements : 495
    Размер потока : 14, 5 Кбайт (0%)
    Заголовок : SRT @ Full
    Язык : Lithuanian
    Default : Нет
    Forced : Нет
    Текст #30
    Идентификатор : 34
    Формат : UTF-8
    Идентификатор кодека : S_TEXT/UTF8
    Идентификатор кодека/Информация : UTF-8 Plain Text
    Продолжительность : 55 м. 15 с.
    Битрейт : 40 бит/сек
    Count of elements : 493
    Размер потока : 16, 4 Кбайт (0%)
    Заголовок : SRT @ Full
    Язык : Malay
    Default : Нет
    Forced : Нет
    Текст #31
    Идентификатор : 35
    Формат : UTF-8
    Идентификатор кодека : S_TEXT/UTF8
    Идентификатор кодека/Информация : UTF-8 Plain Text
    Продолжительность : 56 м. 32 с.
    Битрейт : 36 бит/сек
    Count of elements : 495
    Размер потока : 15, 0 Кбайт (0%)
    Заголовок : SRT @ Full
    Язык : Norwegian
    Default : Нет
    Forced : Нет
    Текст #32
    Идентификатор : 36
    Формат : UTF-8
    Идентификатор кодека : S_TEXT/UTF8
    Идентификатор кодека/Информация : UTF-8 Plain Text
    Продолжительность : 56 м. 32 с.
    Битрейт : 34 бит/сек
    Count of elements : 495
    Размер потока : 14, 1 Кбайт (0%)
    Заголовок : SRT @ Full
    Язык : Polish
    Default : Нет
    Forced : Нет
    Текст #33
    Идентификатор : 37
    Формат : UTF-8
    Идентификатор кодека : S_TEXT/UTF8
    Идентификатор кодека/Информация : UTF-8 Plain Text
    Продолжительность : 56 м. 32 с.
    Битрейт : 38 бит/сек
    Count of elements : 495
    Размер потока : 15, 9 Кбайт (0%)
    Заголовок : SRT @ Full
    Язык : Portuguese
    Default : Нет
    Forced : Нет
    Текст #34
    Идентификатор : 38
    Формат : UTF-8
    Идентификатор кодека : S_TEXT/UTF8
    Идентификатор кодека/Информация : UTF-8 Plain Text
    Продолжительность : 56 м. 32 с.
    Битрейт : 34 бит/сек
    Count of elements : 495
    Размер потока : 14, 2 Кбайт (0%)
    Заголовок : SRT @ Full @ Portuguese (Brazil)
    Язык : Portuguese
    Default : Нет
    Forced : Нет
    Текст #35
    Идентификатор : 39
    Формат : UTF-8
    Идентификатор кодека : S_TEXT/UTF8
    Идентификатор кодека/Информация : UTF-8 Plain Text
    Продолжительность : 56 м. 32 с.
    Битрейт : 32 бит/сек
    Count of elements : 495
    Размер потока : 13, 6 Кбайт (0%)
    Заголовок : SRT @ Full
    Язык : Slovak
    Default : Нет
    Forced : Нет
    Текст #36
    Идентификатор : 40
    Формат : UTF-8
    Идентификатор кодека : S_TEXT/UTF8
    Идентификатор кодека/Информация : UTF-8 Plain Text
    Продолжительность : 56 м. 32 с.
    Битрейт : 32 бит/сек
    Count of elements : 495
    Размер потока : 13, 3 Кбайт (0%)
    Заголовок : SRT @ Full
    Язык : Slovenian
    Default : Нет
    Forced : Нет
    Текст #37
    Идентификатор : 41
    Формат : UTF-8
    Идентификатор кодека : S_TEXT/UTF8
    Идентификатор кодека/Информация : UTF-8 Plain Text
    Продолжительность : 55 м. 16 с.
    Битрейт : 35 бит/сек
    Count of elements : 508
    Размер потока : 14, 5 Кбайт (0%)
    Заголовок : SRT @ Full
    Язык : Spanish
    Default : Нет
    Forced : Нет
    Текст #38
    Идентификатор : 42
    Формат : UTF-8
    Идентификатор кодека : S_TEXT/UTF8
    Идентификатор кодека/Информация : UTF-8 Plain Text
    Продолжительность : 55 м. 16 с.
    Битрейт : 38 бит/сек
    Count of elements : 493
    Размер потока : 15, 4 Кбайт (0%)
    Заголовок : SRT @ Full @ Spanish (Latin America)
    Язык : Spanish
    Default : Нет
    Forced : Нет
    Текст #39
    Идентификатор : 43
    Формат : UTF-8
    Идентификатор кодека : S_TEXT/UTF8
    Идентификатор кодека/Информация : UTF-8 Plain Text
    Продолжительность : 56 м. 32 с.
    Битрейт : 35 бит/сек
    Count of elements : 495
    Размер потока : 14, 8 Кбайт (0%)
    Заголовок : SRT @ Full
    Язык : Swedish
    Default : Нет
    Forced : Нет
    Текст #40
    Идентификатор : 44
    Формат : UTF-8
    Идентификатор кодека : S_TEXT/UTF8
    Идентификатор кодека/Информация : UTF-8 Plain Text
    Продолжительность : 56 м. 32 с.
    Битрейт : 113 бит/сек
    Count of elements : 495
    Размер потока : 47, 0 Кбайт (0%)
    Заголовок : SRT @ Full
    Язык : Tamil
    Default : Нет
    Forced : Нет
    Текст #41
    Идентификатор : 45
    Формат : UTF-8
    Идентификатор кодека : S_TEXT/UTF8
    Идентификатор кодека/Информация : UTF-8 Plain Text
    Продолжительность : 56 м. 32 с.
    Битрейт : 109 бит/сек
    Count of elements : 495
    Размер потока : 45, 2 Кбайт (0%)
    Заголовок : SRT @ Full
    Язык : Telugu
    Default : Нет
    Forced : Нет
    Текст #42
    Идентификатор : 46
    Формат : UTF-8
    Идентификатор кодека : S_TEXT/UTF8
    Идентификатор кодека/Информация : UTF-8 Plain Text
    Продолжительность : 56 м. 32 с.
    Битрейт : 89 бит/сек
    Count of elements : 495
    Размер потока : 37, 0 Кбайт (0%)
    Заголовок : SRT @ Full
    Язык : Thai
    Default : Нет
    Forced : Нет
    Текст #43
    Идентификатор : 47
    Формат : UTF-8
    Идентификатор кодека : S_TEXT/UTF8
    Идентификатор кодека/Информация : UTF-8 Plain Text
    Продолжительность : 56 м. 32 с.
    Битрейт : 47 бит/сек
    Count of elements : 496
    Размер потока : 19, 5 Кбайт (0%)
    Заголовок : SRT @ Full
    Язык : Vietnamese
    Default : Нет
    Forced : Нет

    Скриншоты для ознакомления



    Все одноименные релизы в Клубе
    Время раздачи: 24/7 (круглосуточно) (до появления первых 3-5 скачавших)

    Онлайн видео Видеть



    Видеть/See (2019) WEB-DL [H.264/1080p-LQ] (сезон 1, серии 1-8 из 8) Lostfilm.TV, Кубик в Кубе
    Рейтинг →
     (голосов: 1, оценка 5/5, голосовать можно 1 раз )

    Другие торренты по теме:

  • Видеть все! / Eyeborgs (2009) HDTV [1080i]
  • Майк Ротер, Джон Шук | Учитесь видеть бизнес-процессы. Построение карт потоков создания ценности (2015) [FB2] скачать через торрент бесплатно
  • Деннис Шервуд | Видеть лес за деревьями. Системный подход для совершенствования бизнес-модели (2014) [EPUB, RTF, PDF] скачать через торрент бесплатно
  • Дэнни Грегори | Творческие права. Как открыть в себе художника и научиться видеть (2017) [PDF]
  • Александра Горовиц | Смотреть и видеть. Путеводитель по искусству восприятия (2017) [FB2]
  • Ролан Рехт | Верить и видеть. Искусство соборов XII-XV веков (2014) [DJVU]
  • Бо Лотто | Преломление. Наука видеть иначе (2018) [PDF]
  • Игорь Азнаурян | Про глазки. Как помочь ребенку видеть мир без очков (2018) [FB2]


    • Комментарии (0):

      Информация

      Информация

        Посетители, находящиеся в группе Гости, не могут оставлять комментарии в данной новости.

        ↓ Меню




        ↓ Опрос

        Вы добавили сайт в закладки?
        Да
        Нет


        Популярное