.
Авторизация | Регистрация
bitok.xyz
» » Zомбилэнд: Контрольный выстрел / Zombieland: Double Tap (2019) HDRip торрент скачать бесплатно


    Zомбилэнд: Контрольный выстрел / Zombieland: Double Tap (2019) HDRip торрент скачать бесплатно

    Дата: 27-12-2019, 05:00 | .torrent скачали: 1

    Zомбилэнд: Контрольный выстрел / Zombieland: Double Tap (2019) HDRipПроизводство: США/Columbia Pictures, Pariah
    Жанр: Ужасы, боевик, комедия
    Режиссер: Рубен Фляйшер

    Актеры
    Джесси Айзенберг, Вуди Харрельсон, Эмма Стоун, Эбигейл Бреслин, Зои Дойч, Розарио Доусон, Эван Джогиа, Билл Мюррей, Дэн Эйкройд, Люк Уилсон

    Описание

    Беспощадная и бесстрашная четверка охотников на зомби продолжает свое путешествие в глубь страны. На этот раз им предстоит сразиться не только с новыми видами живых мертвецов, но и вступить в схватку с другими выжившими, которые настроены совсем не дружелюбно. Кроме того, в собственных рядах охотников намечается серьезный разлад.

    Возраст: 18+ (зрителям, достигшим 18 лет. запрещено для детей)
    Рейтинг MPAA: R (лицам до 17 лет обязательно присутствие взрослого)
    Дата мировой премьеры: 9 октября 2019
    Дата премьеры в России: 24 октября 2019

    Продолжительность: 01: 39: 01
    Качество видео: HDRip
    Перевод: Дублированный (iTunes)
    Субтитры: Русские (Full), украинские (Full), английские (Full)
    Видео: XviD, 720x304, ~1718 Kbps
    Аудио: AC3, 6 ch, 384 Kbps
    Общее
    Полное имя : D: NNMZомбилэндZombieland.Double.Tap.2019.HDRipZombieland.Double.Tap.2019.HDRip.avi
    Формат : AVI
    Формат/Информация : Audio Video Interleave
    Размер файла : 1, 46 Гбайт
    Продолжительность : 1 ч. 39 м.
    Общий поток : 2111 Кбит/сек
    Программа кодирования : VirtualDubMod 1.5.10.3 |www.virtualdub-fr.org|| (build 2550/release)
    Библиотека кодирования : VirtualDubMod build 2550/release
    Видео
    Идентификатор : 0
    Формат : MPEG-4 Visual
    Профиль формата : Advanced Simple@L5
    Настройки формата : BVOP1/Custom Matrix
    Параметр BVOP формата : 1
    Параметр QPel формата : Нет
    Параметр GMC формата : Без точки перехода
    Параметр матрицы формата : Выборочная
    Идентификатор кодека : XVID
    Идентификатор кодека/Подсказка : XviD
    Продолжительность : 1 ч. 39 м.
    Битрейт : 1718 Кбит/сек
    Ширина : 720 пикселей
    Высота : 304 пикселя
    Соотношение сторон : 2, 35: 1
    Частота кадров : 23, 976 (24000/1001) кадра/сек
    Цветовое пространство : YUV
    Субдискретизация насыщенности : 4: 2: 0
    Битовая глубина : 8 бит
    Тип развёртки : Прогрессивная
    Метод сжатия : С потерями
    Бит/(Пиксели*Кадры) : 0.327
    Размер потока : 1, 19 Гбайт (81%)
    Библиотека кодирования : XviD 73
    Аудио
    Идентификатор : 1
    Формат : AC-3
    Формат/Информация : Audio Coding 3
    Коммерческое название : Dolby Digital
    Идентификатор кодека : 2000
    Продолжительность : 1 ч. 39 м.
    Вид битрейта : Постоянный
    Битрейт : 384 Кбит/сек
    Каналы : 6 каналов
    ChannelLayout : L R C LFE Ls Rs
    Частота : 48, 0 КГц
    Частота кадров : 31, 250 кадров/сек (1536 SPF)
    Метод сжатия : С потерями
    Размер потока : 272 Мбайт (18%)
    Выравнивание : Разделение по промежуткам
    Продолжительность промежутка : 42 мс. (1, 00 видеокадр)
    Время предзагрузки промежутка : 500 мс.
    ServiceKind/String : Complete Main

    Скриншоты для ознакомления



    Все одноименные релизы в Клубе Время раздачи: 24/7 (до появления первых 3-5 скачавших)

    Онлайн видео Zомбилэнд: Контрольный выстрел



    Zомбилэнд: Контрольный выстрел/Zombieland: Double Tap (2019) HDRip
    Рейтинг →
     (голосов: 1, оценка 5/5, голосовать можно 1 раз )

    Другие торренты по теме:

  • Zомбилэнд: Контрольный выстрел / Zombieland: Double Tap (2019) CAMRip [H.264 / 720p-LQ] [MVO] [AD]
  • Zомбилэнд: Контрольный выстрел / Zombieland: Double Tap (2019) WEBRip [H.264 / 1080p-LQ] [ENG / Kor, Ru, Ukr Sub]
  • Zомбилэнд: Контрольный выстрел / Zombieland: Double Tap (2019) WEBRip [ENG / Kor, Ru Sub]
  • Zомбилэнд: Контрольный выстрел / Zombieland: Double Tap (2019) WEBRip [H.264]
  • Zомбилэнд: Контрольный выстрел / Zombieland: Double Tap (2019) HDRip
  • Zомбилэнд: Контрольный выстрел / Zombieland: Double Tap (2019) BDRip [H.264 / 720p] [PR]
  • Zомбилэнд: Контрольный выстрел / Zombieland: Double Tap (2019) BDRip [H.264 / 1080p] [PR]
  • Zомбилэнд: Контрольный выстрел / Zombieland: Double Tap (2019) BDRip [H.264]


    • Комментарии (0):

      Информация

      Информация

        Посетители, находящиеся в группе Гости, не могут оставлять комментарии в данной новости.

        ↓ Меню




        ↓ Опрос

        Вы добавили сайт в закладки?
        Да
        Нет


        Популярное