.
Авторизация | Регистрация
bitok.xyz
» » Режим уничтожения / Kill Mode (2019) WEB-DLRip [MVO] [AD] торрент скачать бесплатно


    Режим уничтожения / Kill Mode (2019) WEB-DLRip [MVO] [AD] торрент скачать бесплатно

    Дата: 27-12-2019, 05:00 | .torrent скачали: 1

    Режим уничтожения / Kill Mode (2019) WEB-DLRip [MVO] [AD]Производство: Нидерланды/Get Off The Road, Falcon Grove Productions
    Жанр: Фантастика, боевик
    Режиссер: Thijs Meuwese

    Актеры
    Дэйв Мантел, Джулия Бэтилан, Yasmin Blake, Cyriel Guds, Тед Нили, Манук ван дер Мюлен, Rein van Duivenboden, Wesley Mutsaars, Andre Dongelmans, Mareille Labohm

    Описание

    В недалеком будущем, бывший борец за свободу вынужден вернуться в ряды повстанцев, после того как ему открывается страшная тайна, которая может помочь победить компанию, владеющую всем миром.

    Продолжительность: 01: 36: 46
    Качество видео: WEB-DLRip
    Перевод: Многоголосый закадровый, профессиональный (Синема УС)
    Субтитры: Отсутствуют
    Реклама: Присутствует баннер.
    Видео: XviD, 720x304, ~1598 Kbps
    Аудио: AC-3, 2 ch, 384 Kbps
    Общее
    Полное имя : D: NNMРежим уничтоженияKill.Mode.2019.WEB-DLRip.avi
    Формат : AVI
    Формат/Информация : Audio Video Interleave
    Профиль формата : OpenDML
    Размер файла : 1, 35 Гбайт
    Продолжительность : 1 ч. 36 м.
    Общий поток : 1995 Кбит/сек
    Видео
    Идентификатор : 0
    Формат : MPEG-4 Visual
    Профиль формата : Advanced Simple@L5
    Настройки формата : BVOP2/Custom Matrix
    Параметр BVOP формата : 2
    Параметр QPel формата : Нет
    Параметр GMC формата : Без точки перехода
    Параметр матрицы формата : Выборочная
    Идентификатор кодека : XVID
    Идентификатор кодека/Подсказка : XviD
    Продолжительность : 1 ч. 36 м.
    Битрейт : 1598 Кбит/сек
    Ширина : 720 пикселей
    Высота : 304 пикселя
    Соотношение сторон : 2, 35: 1
    Частота кадров : 23, 976 (24000/1001) кадра/сек
    Цветовое пространство : YUV
    Субдискретизация насыщенности : 4: 2: 0
    Битовая глубина : 8 бит
    Тип развёртки : Прогрессивная
    Метод сжатия : С потерями
    Бит/(Пиксели*Кадры) : 0.304
    Размер потока : 1, 08 Гбайт (80%)
    Библиотека кодирования : XviD 1.2.1 (UTC 2008-12-04)
    Аудио
    Идентификатор : 1
    Формат : AC-3
    Формат/Информация : Audio Coding 3
    Коммерческое название : Dolby Digital
    Идентификатор кодека : 2000
    Продолжительность : 1 ч. 36 м.
    Вид битрейта : Постоянный
    Битрейт : 384 Кбит/сек
    Каналы : 2 канала
    ChannelLayout : M M
    Частота : 48, 0 КГц
    Частота кадров : 31, 250 кадров/сек (1536 SPF)
    Метод сжатия : С потерями
    Размер потока : 266 Мбайт (19%)
    Выравнивание : Соединение по промежуткам
    Продолжительность промежутка : 32 мс. (0, 77 видеокадр)
    ServiceKind/String : Complete Main

    Скриншоты для ознакомления



    Все одноименные релизы в Клубе Время раздачи: 24/7 (до появления первых 3-5 скачавших)

    Онлайн видео Режим уничтожения



    Режим уничтожения/Kill Mode (2019) WEB-DLRip [MVO] [AD]
    Рейтинг →
     (голосов: 1, оценка 3/5, голосовать можно 1 раз )

    Другие торренты по теме:

  • Режим уничтожения / Kill Mode (2019) WEB-DLRip [H.264 / 720p-LQ] [MVO] [AD]


    • Комментарии (0):

      Информация

      Информация

        Посетители, находящиеся в группе Гости, не могут оставлять комментарии в данной новости.

        ↓ Меню




        ↓ Опрос

        Вы добавили сайт в закладки?
        Да
        Нет


        Популярное