.
Авторизация | Регистрация
bitok.xyz
» » Режим уничтожения / Kill Mode (2019) WEB-DLRip [H.264 / 720p-LQ] [MVO] [AD] торрент скачать бесплатно


    Режим уничтожения / Kill Mode (2019) WEB-DLRip [H.264 / 720p-LQ] [MVO] [AD] торрент скачать бесплатно

    Дата: 27-12-2019, 05:00 | .torrent скачали: 0

    Режим уничтожения / Kill Mode (2019) WEB-DLRip [H.264 / 720p-LQ] [MVO] [AD]Производство: Нидерланды/Get Off The Road, Falcon Grove Productions
    Жанр: Фантастика, боевик
    Режиссер: Thijs Meuwese

    Актеры
    Дэйв Мантел, Джулия Бэтилан, Yasmin Blake, Cyriel Guds, Тед Нили, Манук ван дер Мюлен, Rein van Duivenboden, Wesley Mutsaars, Andre Dongelmans, Mareille Labohm

    Описание

    В недалеком будущем, бывший борец за свободу вынужден вернуться в ряды повстанцев, после того как ему открывается страшная тайна, которая может помочь победить компанию, владеющую всем миром.

    Продолжительность: 01: 36: 46
    Качество видео: WEB-DLRip
    Перевод: Многоголосый закадровый, профессиональный (Синема УС)
    Субтитры: Отсутствуют
    Реклама: Присутствует баннер.
    Видео: AVC/H.264, 1280x534, ~5488 Kbps
    Аудио: AC-3, 2 ch, 384 Kbps
    Общее
    Полное имя : D: NNMРежим уничтоженияKill.Mode.2019.WEB-DLRip.720p-LQ.mkv
    Формат : Matroska
    Версия формата : Version 2
    Размер файла : 4, 05 Гбайт
    Продолжительность : 1 ч. 36 м.
    Режим общего битрейта : Переменный
    Общий поток : 5991 Кбит/сек
    Программа кодирования : libmatroska 1.4.1
    Библиотека кодирования : SolveigMM Matroska Muxer Version 1.0.1502.31
    Видео
    Идентификатор : 1
    Формат : AVC
    Формат/Информация : Advanced Video Codec
    Профиль формата : High@L4.1
    Настройки формата : CABAC/4 Ref Frames
    Параметр CABAC формата : Да
    Параметр RefFrames формата : 4 кадра
    Идентификатор кодека : V_MPEG4/ISO/AVC
    Продолжительность : 1 ч. 36 м.
    Вид битрейта : Переменный
    Битрейт : 5488 Кбит/сек
    Номинальный битрейт : 6200 Кбит/сек
    Максимальный битрейт : 6200 Кбит/сек
    Ширина : 1280 пикселей
    Высота : 534 пикселя
    Соотношение сторон : 2, 40: 1
    Режим частоты кадров : Постоянный
    Частота кадров : 23, 976 (24000/1001) кадра/сек
    Стандарт вещания : Component
    Цветовое пространство : YUV
    Субдискретизация насыщенности : 4: 2: 0
    Битовая глубина : 8 бит
    Тип развёртки : Прогрессивная
    Бит/(Пиксели*Кадры) : 0.335
    Размер потока : 3, 71 Гбайт (92%)
    Default : Нет
    Forced : Нет
    Цветовой диапазон : Limited
    Основные цвета : BT.709
    Характеристики трансфера : BT.709
    Коэффициенты матрицы : BT.709
    Аудио
    Идентификатор : 2
    Формат : AC-3
    Формат/Информация : Audio Coding 3
    Коммерческое название : Dolby Digital
    Идентификатор кодека : A_AC3
    Продолжительность : 1 ч. 36 м.
    Вид битрейта : Постоянный
    Битрейт : 384 Кбит/сек
    Каналы : 2 канала
    ChannelLayout : M M
    Частота : 48, 0 КГц
    Частота кадров : 31, 250 кадров/сек (1536 SPF)
    Метод сжатия : С потерями
    Размер потока : 266 Мбайт (6%)
    Язык : Russian
    ServiceKind/String : Complete Main
    Default : Нет
    Forced : Нет

    Скриншоты для ознакомления



    Все одноименные релизы в Клубе Время раздачи: 24/7 (до появления первых 3-5 скачавших)

    Онлайн видео Режим уничтожения



    Режим уничтожения/Kill Mode (2019) WEB-DLRip [H.264/720p-LQ] [MVO] [AD]
    Рейтинг →
     (голосов: 1, оценка 4/5, голосовать можно 1 раз )

    Другие торренты по теме:

  • Режим уничтожения / Kill Mode (2019) WEB-DLRip [MVO] [AD]


    • Комментарии (0):

      Информация

      Информация

        Посетители, находящиеся в группе Гости, не могут оставлять комментарии в данной новости.

        ↓ Меню




        ↓ Опрос

        Вы добавили сайт в закладки?
        Да
        Нет


        Популярное