.
Авторизация | Регистрация
bitok.xyz
» » Конец сезона (2019) WEB-DLRip [H.264] торрент скачать бесплатно


    Конец сезона (2019) WEB-DLRip [H.264] торрент скачать бесплатно

    Дата: 27-12-2019, 05:00 | .torrent скачали: 2

    Конец сезона (2019) WEB-DLRip [H.264]Производство: Россия/Киностудия Вертикаль, Мосфильм
    Жанр: Триллер, мелодрама
    Режиссер: Константин Худяков

    Актеры
    Юлия Снигирь, Юлия Пересильд, Анна Чиповская, Евгений Цыганов, Сергей Колтаков, Андрюс Паулавичюс, Габриэле Куодите, Сергей Дьяков, Сергей Кореньков, Наталья Кудряшова

    Описание

    Три сестры волею обстоятельств оказались за пределами России и живут в маленьком прибалтийском городке. Они, как и героини знаменитой пьесы Антона Павловича Чехова, живут мечтой о возвращении в Москву и ищут любовь, однако у судьбы на них свои планы. Одну никак не оставляет прошлое, другая ищет простого женского счастья, а у третьей — кризис семейной жизни. Тем временем, на тихом побережье появляется опасный убийца… Светлая меланхолия сменяется взрывами человеческих эмоций и нешуточной борьбой за жизнь.

    Возраст: 16+ (зрителям, достигшим 16 лет)
    Дата мировой премьеры: 22 ноября 2019
    Дата премьеры в России: 5 декабря 2019

    Продолжительность: 01: 34: 12
    Качество видео: WEB-DLRip (AVC)
    Перевод: Не требуется (русский) iTunes
    Субтитры: Отсутствуют
    Видео: AVC/H.264, 1024x456, ~1829 Kbps
    Аудио: AC3, 6 ch, 384 Kbps
    Общее
    Уникальный идентификатор : 222752601081924000612272585444788932933 (0xA79497287A261C29BC7355A77EA61145)
    Полное имя : D: NNMКонец сезон любимого сериалааKonec.sezona.2019.WEB-DLRip.AVC.mkv
    Формат : Matroska
    Версия формата : Version 2
    Размер файла : 1, 46 Гбайт
    Продолжительность : 1 ч. 34 м.
    Общий поток : 2213 Кбит/сек
    Дата кодирования : UTC 2019-12-26 16: 57: 54
    Программа кодирования : mkvmerge v7.8.0 (\'River Man\') 32bit built on Apr 3 2015 12: 11: 22
    Библиотека кодирования : libebml v1.3.1 + libmatroska v1.4.2
    Видео
    Идентификатор : 1
    Формат : AVC
    Формат/Информация : Advanced Video Codec
    Профиль формата : High@L4.1
    Настройки формата : CABAC/10 Ref Frames
    Параметр CABAC формата : Да
    Параметр RefFrames формата : 10 кадров
    Идентификатор кодека : V_MPEG4/ISO/AVC
    Продолжительность : 1 ч. 34 м.
    Битрейт : 1829 Кбит/сек
    Ширина : 1024 пикселя
    Высота : 456 пикселей
    Соотношение сторон : 2, 25: 1
    Режим частоты кадров : Постоянный
    Частота кадров : 24, 000 кадра/сек
    Цветовое пространство : YUV
    Субдискретизация насыщенности : 4: 2: 0
    Битовая глубина : 8 бит
    Тип развёртки : Прогрессивная
    Бит/(Пиксели*Кадры) : 0.163
    Размер потока : 1, 17 Гбайт (81%)
    Библиотека кодирования : x264 core 146 r2538 121396c
    Настройки программы : cabac=1/ref=10/deblock=1: -2: -1/analyse=0x3: 0x133/me=umh/subme=11/psy=1/psy_rd=1.00: 0.08/mixed_ref=1/me_range=32/chroma_me=1/trellis=2/8x8dct=1/cqm=0/deadzone=21, 11/fast_pskip=0/chroma_qp_offset=-3/threads=18/lookahead_threads=3/sliced_threads=0/nr=0/decimate=1/interlaced=0/bluray_compat=0/constrained_intra=0/bframes=11/b_pyramid=2/b_adapt=2/b_bias=0/direct=1/weightb=1/open_gop=0/weightp=2/keyint=250/keyint_min=23/scenecut=40/intra_refresh=0/rc=2pass/mbtree=0/bitrate=1829/ratetol=1.0/qcomp=0.60/qpmin=0/qpmax=69/qpstep=4/cplxblur=20.0/qblur=0.5/ip_ratio=1.40/pb_ratio=1.30/aq=2: 1.00
    Default : Да
    Forced : Нет
    Цветовой диапазон : Limited
    Основные цвета : BT.709
    Характеристики трансфера : BT.709
    Коэффициенты матрицы : BT.709
    Аудио
    Идентификатор : 2
    Формат : AC-3
    Формат/Информация : Audio Coding 3
    Коммерческое название : Dolby Digital
    Идентификатор кодека : A_AC3
    Продолжительность : 1 ч. 34 м.
    Вид битрейта : Постоянный
    Битрейт : 384 Кбит/сек
    Каналы : 6 каналов
    ChannelLayout : L R C LFE Ls Rs
    Частота : 48, 0 КГц
    Частота кадров : 31, 250 кадров/сек (1536 SPF)
    Метод сжатия : С потерями
    Размер потока : 259 Мбайт (17%)
    ServiceKind/String : Complete Main
    Default : Да
    Forced : Нет

    Скриншоты для ознакомления



    Все одноименные релизы в Клубе Время раздачи: 24/7 (до появления первых 3-5 скачавших)

    Онлайн видео Конец сезон любимого сериалаа (2019) WEB



    Конец сезона (2019) WEB-DLRip [H.264]
    Рейтинг →
     (голосов: 1, оценка 4/5, голосовать можно 1 раз )

    Другие торренты по теме:

  • Конец сезона (2019) WEB-DLRip
  • Конец сезона (2019) WEB-DL [H.264 / 1080p-LQ]


    • Комментарии (0):

      Информация

      Информация

        Посетители, находящиеся в группе Гости, не могут оставлять комментарии в данной новости.

        ↓ Меню




        ↓ Опрос

        Вы добавили сайт в закладки?
        Да
        Нет


        Популярное