.
Авторизация | Регистрация
bitok.xyz
» » Корпоративные животные / Corporate Animals (2019) WEB-DLRip торрент скачать бесплатно


    Корпоративные животные / Corporate Animals (2019) WEB-DLRip торрент скачать бесплатно

    Дата: 27-12-2019, 05:00 | .torrent скачали: 1

    Корпоративные животные / Corporate Animals (2019) WEB-DLRipПроизводство: США/Pacific Electric Picture Company, Protagonist Pictures, Snoot Entertainment
    Жанр: Комедия, ужасы
    Режиссер: Патрик Брайс

    Актеры
    Деми Мур, Эд Хелмс, Джессика Уильямс, Каран Сони, Исайя Уитлок мл., Марта Келли, Дэн Баккедаль, Кэлам Уорси, Дженнифер Ким, Назим Педрад

    Описание

    Люси руководит крупнейшей в Америке компанией по производству съедобной посуды. Она непрерывно сыпет общими фразами о командной работе и достижении целей ради коллектива, но на деле думает только о собственной выгоде. На тимбилдинге, который Люси организовывает для работников, происходит несчастный случай — команда спускается в подземные пещеры, но выход заваливает вместе с кинувшимся наутёк инструктором. Настало время для каждого сотрудника узнать истинное лицо коллег, начальницы и научиться настоящей работе в команде.

    Возраст: 18+ (зрителям, достигшим 18 лет. запрещено для детей)
    Рейтинг MPAA: R (лицам до 17 лет обязательно присутствие взрослого)
    Дата мировой премьеры: 29 января 2019
    Дата премьеры в России: 21 ноября 2019

    Продолжительность: 01: 25: 53
    Качество видео: WEB-DLRip (Amazon)
    Перевод: Дублированный (iTunes)
    Субтитры: Отсутствуют
    Видео: XviD, 720x304, ~2075 Kbps
    Аудио: AC-3, 6 ch, 384 Kbps
    Общее
    Полное имя : D: NNMКорпоративные животныеKorporativnye.zhivotnye.2019.WEB-DLRip.avi
    Формат : AVI
    Формат/Информация : Audio Video Interleave
    Размер файла : 1, 48 Гбайт
    Продолжительность : 1 ч. 25 м.
    Общий поток : 2468 Кбит/сек
    Программа кодирования : VirtualDubMod 1.5.10.3 |www.virtualdub-fr.org|| (build 2550/release)
    Библиотека кодирования : VirtualDubMod build 2550/release
    Видео
    Идентификатор : 0
    Формат : MPEG-4 Visual
    Профиль формата : Advanced Simple@L5
    Настройки формата : BVOP1/Custom Matrix
    Параметр BVOP формата : 1
    Параметр QPel формата : Нет
    Параметр GMC формата : Без точки перехода
    Параметр матрицы формата : Выборочная
    Идентификатор кодека : XVID
    Идентификатор кодека/Подсказка : XviD
    Продолжительность : 1 ч. 25 м.
    Битрейт : 2075 Кбит/сек
    Ширина : 720 пикселей
    Высота : 304 пикселя
    Соотношение сторон : 2, 35: 1
    Частота кадров : 23, 976 (24000/1001) кадра/сек
    Цветовое пространство : YUV
    Субдискретизация насыщенности : 4: 2: 0
    Битовая глубина : 8 бит
    Тип развёртки : Прогрессивная
    Метод сжатия : С потерями
    Бит/(Пиксели*Кадры) : 0.395
    Размер потока : 1, 24 Гбайт (84%)
    Библиотека кодирования : XviD 1.2.1 (UTC 2008-12-04)
    Аудио
    Идентификатор : 1
    Формат : AC-3
    Формат/Информация : Audio Coding 3
    Коммерческое название : Dolby Digital
    Идентификатор кодека : 2000
    Продолжительность : 1 ч. 25 м.
    Вид битрейта : Постоянный
    Битрейт : 384 Кбит/сек
    Каналы : 6 каналов
    ChannelLayout : L R C LFE Ls Rs
    Частота : 48, 0 КГц
    Частота кадров : 31, 250 кадров/сек (1536 SPF)
    Метод сжатия : С потерями
    Размер потока : 236 Мбайт (16%)
    Выравнивание : Разделение по промежуткам
    Продолжительность промежутка : 42 мс. (1, 00 видеокадр)
    Время предзагрузки промежутка : 500 мс.
    ServiceKind/String : Complete Main

    Скриншоты для ознакомления



    Все одноименные релизы в Клубе Время раздачи: 24/7 (до появления первых 3-5 скачавших)

    Онлайн видео Корпоративные животные



    Корпоративные животные/Corporate Animals (2019) WEB-DLRip
    Рейтинг →
     (голосов: 1, оценка 5/5, голосовать можно 1 раз )

    Другие торренты по теме:

  • Корпоративные животные / Corporate Animals (2019) BDRemux [H.264 / 1080p]
  • Корпоративные животные / Corporate Animals (2019) WEB-DL [H.264 / 1080p-LQ]


    • Комментарии (0):

      Информация

      Информация

        Посетители, находящиеся в группе Гости, не могут оставлять комментарии в данной новости.

        ↓ Меню




        ↓ Опрос

        Вы добавили сайт в закладки?
        Да
        Нет


        Популярное