.
Авторизация | Регистрация
bitok.xyz
» » Конец сезона (2019) WEB-DLRip торрент скачать бесплатно


    Конец сезона (2019) WEB-DLRip торрент скачать бесплатно

    Дата: 27-12-2019, 05:00 | .torrent скачали: 1

    Конец сезона (2019) WEB-DLRipПроизводство: Россия/Киностудия Вертикаль, Мосфильм
    Жанр: Триллер, мелодрама
    Режиссер: Константин Худяков

    Актеры
    Юлия Снигирь, Юлия Пересильд, Анна Чиповская, Евгений Цыганов, Сергей Колтаков, Андрюс Паулавичюс, Габриэле Куодите, Сергей Дьяков, Сергей Кореньков, Наталья Кудряшова

    Описание

    Три сестры волею обстоятельств оказались за пределами России и живут в маленьком прибалтийском городке. Они, как и героини знаменитой пьесы Антона Павловича Чехова, живут мечтой о возвращении в Москву и ищут любовь, однако у судьбы на них свои планы. Одну никак не оставляет прошлое, другая ищет простого женского счастья, а у третьей — кризис семейной жизни. Тем временем, на тихом побережье появляется опасный убийца… Светлая меланхолия сменяется взрывами человеческих эмоций и нешуточной борьбой за жизнь.

    Возраст: 16+ (зрителям, достигшим 16 лет)
    Дата мировой премьеры: 22 ноября 2019
    Дата премьеры в России: 5 декабря 2019

    Продолжительность: 01: 34: 12
    Качество видео: WEB-DLRip
    Перевод: Не требуется (русский) iTunes
    Субтитры: Отсутствуют
    Видео: XviD, 720x320, ~1826 Kbps
    Аудио: AC-3, 6 ch, 384 Kbps
    Общее
    Полное имя : D: NNMКонец сезон любимого сериалааKonec.sezona.2019.WЕВ-DLRip.avi
    Формат : AVI
    Формат/Информация : Audio Video Interleave
    Размер файла : 1, 46 Гбайт
    Продолжительность : 1 ч. 34 м.
    Общий поток : 2219 Кбит/сек
    Название фильма : K
    Программа кодирования : V
    Формат оригинала/Имя : K
    Видео
    Идентификатор : 0
    Формат : MPEG-4 Visual
    Профиль формата : Advanced Simple@L5
    Настройки формата : BVOP2
    Параметр BVOP формата : 2
    Параметр QPel формата : Нет
    Параметр GMC формата : Без точки перехода
    Параметр матрицы формата : Default (MPEG)
    Идентификатор кодека : XVID
    Идентификатор кодека/Подсказка : XviD
    Продолжительность : 1 ч. 34 м.
    Битрейт : 1826 Кбит/сек
    Ширина : 720 пикселей
    Высота : 320 пикселей
    Соотношение сторон : 2, 25: 1
    Частота кадров : 24, 000 кадра/сек
    Цветовое пространство : YUV
    Субдискретизация насыщенности : 4: 2: 0
    Битовая глубина : 8 бит
    Тип развёртки : Прогрессивная
    Метод сжатия : С потерями
    Бит/(Пиксели*Кадры) : 0.330
    Размер потока : 1, 20 Гбайт (82%)
    Библиотека кодирования : XviD 67
    Аудио
    Идентификатор : 1
    Формат : AC-3
    Формат/Информация : Audio Coding 3
    Коммерческое название : Dolby Digital
    Идентификатор кодека : 2000
    Продолжительность : 1 ч. 34 м.
    Вид битрейта : Постоянный
    Битрейт : 384 Кбит/сек
    Каналы : 6 каналов
    ChannelLayout : L R C LFE Ls Rs
    Частота : 48, 0 КГц
    Частота кадров : 31, 250 кадров/сек (1536 SPF)
    Метод сжатия : С потерями
    Размер потока : 259 Мбайт (17%)
    Выравнивание : Разделение по промежуткам
    Продолжительность промежутка : 42 мс. (1, 00 видеокадр)
    Время предзагрузки промежутка : 500 мс.
    ServiceKind/String : Complete Main

    Скриншоты для ознакомления



    Все одноименные релизы в Клубе Время раздачи: 24/7 (до появления первых 3-5 скачавших)

    Онлайн видео Конец сезон любимого сериалаа (2019) WEB



    Конец сезона (2019) WEB-DLRip
    Рейтинг →
     (голосов: 1, оценка 5/5, голосовать можно 1 раз )

    Другие торренты по теме:

  • Конец сезона (2019) WEB-DLRip [H.264]
  • Конец сезона (2019) WEB-DL [H.264 / 1080p-LQ]


    • Комментарии (0):

      Информация

      Информация

        Посетители, находящиеся в группе Гости, не могут оставлять комментарии в данной новости.

        ↓ Меню




        ↓ Опрос

        Вы добавили сайт в закладки?
        Да
        Нет


        Популярное