.
Авторизация | Регистрация
bitok.xyz
» » Конец сезона (2019) WEB-DL [H.264 / 1080p-LQ] торрент скачать бесплатно


    Конец сезона (2019) WEB-DL [H.264 / 1080p-LQ] торрент скачать бесплатно

    Дата: 27-12-2019, 05:00 | .torrent скачали: 4

    Конец сезона (2019) WEB-DL [H.264 / 1080p-LQ]Производство: Россия/Киностудия Вертикаль, Мосфильм
    Жанр: Триллер, мелодрама
    Режиссер: Константин Худяков

    Актеры
    Юлия Снигирь, Юлия Пересильд, Анна Чиповская, Евгений Цыганов, Сергей Колтаков, Андрюс Паулавичюс, Габриэле Куодите, Сергей Дьяков, Сергей Кореньков, Наталья Кудряшова

    Описание

    Три сестры волею обстоятельств оказались за пределами России и живут в маленьком прибалтийском городке. Они, как и героини знаменитой пьесы Антона Павловича Чехова, живут мечтой о возвращении в Москву и ищут любовь, однако у судьбы на них свои планы. Одну никак не оставляет прошлое, другая ищет простого женского счастья, а у третьей — кризис семейной жизни. Тем временем, на тихом побережье появляется опасный убийца… Светлая меланхолия сменяется взрывами человеческих эмоций и нешуточной борьбой за жизнь.

    Возраст: 16+ (зрителям, достигшим 16 лет)
    Дата мировой премьеры: 22 ноября 2019
    Дата премьеры в России: 5 декабря 2019

    Продолжительность: 01: 34: 12
    Качество видео: WEB-DL
    Перевод: Не требуется (русский) iTunes
    Субтитры: Отсутствуют
    Видео: AVC/H.264, 1920x856, ~4559 Kbps
    Аудио: AC3, 6 ch, 384 Kbps
    Общее
    Уникальный идентификатор : 2057578854545191738984893669740311169 (0x18C467848BED946A366236CE70EF281)
    Полное имя : D: NNMКонец сезон любимого сериалааConec.sezona.2019.WEB-DL.1080p-LQ.mkv
    Формат : Matroska
    Версия формата : Version 4
    Размер файла : 3, 26 Гбайт
    Продолжительность : 1 ч. 34 м.
    Общий поток : 4947 Кбит/сек
    Программа кодирования : mkvmerge v41.0.0 (\'Smarra\') 64-bit
    Библиотека кодирования : libebml v1.3.9 + libmatroska v1.5.2
    Видео
    Идентификатор : 1
    Формат : AVC
    Формат/Информация : Advanced Video Codec
    Профиль формата : High@L4
    Настройки формата : CABAC/5 Ref Frames
    Параметр CABAC формата : Да
    Параметр RefFrames формата : 5 кадров
    Идентификатор кодека : V_MPEG4/ISO/AVC
    Продолжительность : 1 ч. 34 м.
    Битрейт : 4559 Кбит/сек
    Ширина : 1920 пикселей
    Высота : 856 пикселей
    Соотношение сторон : 2, 25: 1
    Режим частоты кадров : Постоянный
    Частота кадров : 24, 000 кадра/сек
    Цветовое пространство : YUV
    Субдискретизация насыщенности : 4: 2: 0
    Битовая глубина : 8 бит
    Тип развёртки : Прогрессивная
    Бит/(Пиксели*Кадры) : 0.116
    Размер потока : 3, 00 Гбайт (92%)
    Язык : English
    Default : Да
    Forced : Нет
    Цветовой диапазон : Limited
    Основные цвета : BT.709
    Характеристики трансфера : BT.709
    Коэффициенты матрицы : BT.709
    Аудио
    Идентификатор : 2
    Формат : AC-3
    Формат/Информация : Audio Coding 3
    Коммерческое название : Dolby Digital
    Идентификатор кодека : A_AC3
    Продолжительность : 1 ч. 34 м.
    Вид битрейта : Постоянный
    Битрейт : 384 Кбит/сек
    Каналы : 6 каналов
    ChannelLayout : L R C LFE Ls Rs
    Частота : 48, 0 КГц
    Частота кадров : 31, 250 кадров/сек (1536 SPF)
    Метод сжатия : С потерями
    Размер потока : 259 Мбайт (8%)
    Язык : Russian
    ServiceKind/String : Complete Main
    Default : Да
    Forced : Нет
    Меню
    00: 00: 00.000 : en: Глава 1
    00: 08: 44.000 : en: Глава 2
    00: 17: 08.458 : en: Глава 3
    00: 25: 34.458 : en: Глава 4
    00: 34: 00.458 : en: Глава 5
    00: 42: 13.249 : en: Глава 6
    00: 50: 16.082 : en: Глава 7
    00: 58: 26.498 : en: Глава 8
    01: 06: 36.873 : en: Глава 9
    01: 14: 54.748 : en: Глава 10
    01: 23: 38.748 : en: Глава 11

    Скриншоты для ознакомления



    Все одноименные релизы в Клубе Время раздачи: 24/7 (до появления первых 3-5 скачавших)

    Онлайн видео Конец сезон любимого сериалаа (2019) WEB-DL [H.264



    Конец сезона (2019) WEB-DL [H.264/1080p-LQ]
    Рейтинг →
     (голосов: 1, оценка 4/5, голосовать можно 1 раз )

    Другие торренты по теме:

  • Конец сезона (2019) WEB-DLRip [H.264]
  • Конец сезона (2019) WEB-DLRip


    • Комментарии (0):

      Информация

      Информация

        Посетители, находящиеся в группе Гости, не могут оставлять комментарии в данной новости.

        ↓ Меню




        ↓ Опрос

        Вы добавили сайт в закладки?
        Да
        Нет


        Популярное