.
Авторизация | Регистрация
bitok.xyz
» » Корпоративные животные / Corporate Animals (2019) WEB-DL [H.264 / 1080p-LQ] торрент скачать бесплатно


    Корпоративные животные / Corporate Animals (2019) WEB-DL [H.264 / 1080p-LQ] торрент скачать бесплатно

    Дата: 27-12-2019, 05:00 | .torrent скачали: 0

    Корпоративные животные / Corporate Animals (2019) WEB-DL [H.264 / 1080p-LQ]Производство: США/Pacific Electric Picture Company, Protagonist Pictures, Snoot Entertainment
    Жанр: Комедия, ужасы
    Режиссер: Патрик Брайс

    Актеры
    Деми Мур, Эд Хелмс, Джессика Уильямс, Каран Сони, Исайя Уитлок мл., Марта Келли, Дэн Баккедаль, Кэлам Уорси, Дженнифер Ким, Назим Педрад

    Описание

    Люси руководит крупнейшей в Америке компанией по производству съедобной посуды. Она непрерывно сыпет общими фразами о командной работе и достижении целей ради коллектива, но на деле думает только о собственной выгоде. На тимбилдинге, который Люси организовывает для работников, происходит несчастный случай — команда спускается в подземные пещеры, но выход заваливает вместе с кинувшимся наутёк инструктором. Настало время для каждого сотрудника узнать истинное лицо коллег, начальницы и научиться настоящей работе в команде.

    Возраст: 18+ (зрителям, достигшим 18 лет. запрещено для детей)
    Рейтинг MPAA: R (лицам до 17 лет обязательно присутствие взрослого)
    Дата мировой премьеры: 29 января 2019
    Дата премьеры в России: 21 ноября 2019

    Продолжительность: 01: 25: 53
    Качество видео: WEB-DL (Amazon)
    Перевод: Дублированный (iTunes)
    Субтитры: Английские (Full, SDH)
    Видео: AVC/H.264, 1920x800, ~5450 Kbps
    Аудио #1: AC3, 6 ch, 384 Kbps - Русский
    Аудио #2: AC3, 6 ch, 640 Kbps - Английский
    Общее
    Уникальный идентификатор : 237292522384234654158522934270563962844 (0xB284E0A029CC409688EF6DC2844FCFDC)
    Полное имя : D: NNMКорпоративные животныеKorporativnye.zhivotnye.2019.WEB-DL.1080p-LQ.mkv
    Формат : Matroska
    Версия формата : Version 4
    Размер файла : 3, 89 Гбайт
    Продолжительность : 1 ч. 25 м.
    Общий поток : 6476 Кбит/сек
    Дата кодирования : UTC 2019-12-26 00: 19: 10
    Программа кодирования : mkvmerge v8.3.0 (\'Over the Horizon\') 64bit
    Библиотека кодирования : libebml v1.3.1 + libmatroska v1.4.2
    Видео
    Идентификатор : 1
    Формат : AVC
    Формат/Информация : Advanced Video Codec
    Профиль формата : High@L4
    Настройки формата : CABAC/4 Ref Frames
    Параметр CABAC формата : Да
    Параметр RefFrames формата : 4 кадра
    Идентификатор кодека : V_MPEG4/ISO/AVC
    Продолжительность : 1 ч. 25 м.
    Вид битрейта : Постоянный
    Битрейт : 5450 Кбит/сек
    Номинальный битрейт : 10000 Кбит/сек
    Ширина : 1920 пикселей
    Высота : 800 пикселей
    Соотношение сторон : 2, 40: 1
    Режим частоты кадров : Постоянный
    Частота кадров : 23, 976 (24000/1001) кадра/сек
    Цветовое пространство : YUV
    Субдискретизация насыщенности : 4: 2: 0
    Битовая глубина : 8 бит
    Тип развёртки : Прогрессивная
    Бит/(Пиксели*Кадры) : 0.148
    Размер потока : 3, 27 Гбайт (84%)
    Язык : English
    Default : Да
    Forced : Нет
    Цветовой диапазон : Limited
    Основные цвета : BT.709
    Характеристики трансфера : BT.709
    Коэффициенты матрицы : BT.709
    Аудио #1
    Идентификатор : 2
    Формат : AC-3
    Формат/Информация : Audio Coding 3
    Коммерческое название : Dolby Digital
    Идентификатор кодека : A_AC3
    Продолжительность : 1 ч. 25 м.
    Вид битрейта : Постоянный
    Битрейт : 384 Кбит/сек
    Каналы : 6 каналов
    ChannelLayout : L R C LFE Ls Rs
    Частота : 48, 0 КГц
    Частота кадров : 31, 250 кадров/сек (1536 SPF)
    Метод сжатия : С потерями
    Размер потока : 236 Мбайт (6%)
    Заголовок : itunes (ELEKTRI4KA.UNIONGANG)
    Язык : Russian
    ServiceKind/String : Complete Main
    Default : Да
    Forced : Нет
    Аудио #2
    Идентификатор : 3
    Формат : E-AC-3
    Формат/Информация : Enhanced AC-3
    Коммерческое название : Dolby Digital Plus
    Идентификатор кодека : A_EAC3
    Продолжительность : 1 ч. 25 м.
    Вид битрейта : Постоянный
    Битрейт : 640 Кбит/сек
    Каналы : 6 каналов
    ChannelLayout : L R C LFE Ls Rs
    Частота : 48, 0 КГц
    Частота кадров : 31, 250 кадров/сек (1536 SPF)
    Метод сжатия : С потерями
    Размер потока : 393 Мбайт (10%)
    Язык : English
    ServiceKind/String : Complete Main
    Default : Нет
    Forced : Нет
    Текст #1
    Идентификатор : 4
    Формат : UTF-8
    Идентификатор кодека : S_TEXT/UTF8
    Идентификатор кодека/Информация : UTF-8 Plain Text
    Продолжительность : 1 ч. 25 м.
    Битрейт : 79 бит/сек
    ElementCount : 1852
    Размер потока : 49, 3 Кбайт (0%)
    Язык : English
    Default : Нет
    Forced : Нет
    Текст #2
    Идентификатор : 5
    Формат : UTF-8
    Идентификатор кодека : S_TEXT/UTF8
    Идентификатор кодека/Информация : UTF-8 Plain Text
    Продолжительность : 1 ч. 25 м.
    Битрейт : 80 бит/сек
    ElementCount : 1971
    Размер потока : 50, 7 Кбайт (0%)
    Заголовок : SDH
    Язык : English
    Default : Нет
    Forced : Нет

    Скриншоты для ознакомления



    Все одноименные релизы в Клубе Время раздачи: 24/7 (до появления первых 3-5 скачавших)

    Онлайн видео Корпоративные животные



    Корпоративные животные/Corporate Animals (2019) WEB-DL [H.264/1080p-LQ]
    Рейтинг →
     (голосов: 1, оценка 3/5, голосовать можно 1 раз )

    Другие торренты по теме:

  • Корпоративные животные / Corporate Animals (2019) WEB-DLRip
  • Корпоративные животные / Corporate Animals (2019) BDRemux [H.264 / 1080p]


    • Комментарии (0):

      Информация

      Информация

        Посетители, находящиеся в группе Гости, не могут оставлять комментарии в данной новости.

        ↓ Меню




        ↓ Опрос

        Вы добавили сайт в закладки?
        Да
        Нет


        Популярное