.
Авторизация | Регистрация
bitok.xyz
» » До Нового года осталось… (2019) WEB-DLRip торрент скачать бесплатно


    До Нового года осталось… (2019) WEB-DLRip торрент скачать бесплатно

    Дата: 27-12-2019, 05:00 | .torrent скачали: 3

    До Нового года осталось… (2019) WEB-DLRipПроизводство: Россия/Самсебесама Продакшн
    Жанр: Мелодрама, комедия
    Режиссер: Алексей Бажанов

    Актеры
    Татьяна Виноградова, Светлана Большакова, Константин Адаев, Алексей Марков, Алексей Бажанов, Анастасия Карачевская, Денис Боеревич, Алексей Сашин, Анна Леванова, Алексей Зеленский (I)

    Описание

    Новый год — это своеобразный рубеж, момент подведения итогов, принятия решений. Новый год — новое начало, время мечтать, загадывать желания и ждать чудес… Пока вся Москва скупает подарки и наряжает ёлки, Денис отчаянно старается успеть открыть бар к 31 декабря и доказать отцу свою состоятельность. Ирина всё больше погружается в работу, стараясь не замечать ни украшенного офиса, ни приближения праздников, ни собственного одиночества. Настя — студентка-первокурсница, совсем одна в чужой для нее Москве, скучает по маме, работает в кафе и, улыбаясь из последних сил, несёт людям радость и кофе. Света — Снегурочка, и кому, как не ей радоваться Новому году и дарить окружающим праздничное настроение, но и у нее не всё гладко: любимый муж полностью погружен в мир компьютерных игр и не замечает, ни сына, ни Свету, ни реальность. А всё это время Александр и Александра снимают кино про настоящую любовь, стараясь не думать о том, что их личная история не имеет ни малейшего шанса на счастливый финал. Пять чудесных историй, случившихся с совершенно разными людьми в канун Нового года на фоне заснеженного Старого Арбата.

    Возраст: 12+ (зрителям, достигшим 12 лет)
    Дата премьеры в России: 19 декабря 2019
    Цифровой релиз: 26 декабря 2019
    Продолжительность: 01: 26: 49
    Качество видео: WEB-DLRip
    Перевод: Не требуется (русский)
    Субтитры: Отсутствуют
    Видео: XviD, 720x400, ~2055 Kbps
    Аудио: AC-3, 2 ch, 192 Kbps
    Общее
    Полное имя : D: NNMДо Нового года осталось…Do.Novogo.goda.ostalosj.2019.WEB-DLRip.avi
    Формат : AVI
    Формат/Информация : Audio Video Interleave
    Размер файла : 1, 37 Гбайт
    Продолжительность : 1 ч. 26 м.
    Общий поток : 2256 Кбит/сек
    Название фильма : D
    Программа кодирования : V
    Формат оригинала/Имя : M
    Видео
    Идентификатор : 0
    Формат : MPEG-4 Visual
    Профиль формата : Advanced Simple@L5
    Настройки формата : BVOP1
    Параметр BVOP формата : 1
    Параметр QPel формата : Нет
    Параметр GMC формата : Без точки перехода
    Параметр матрицы формата : Default (MPEG)
    Идентификатор кодека : XVID
    Идентификатор кодека/Подсказка : XviD
    Продолжительность : 1 ч. 26 м.
    Битрейт : 2055 Кбит/сек
    Ширина : 720 пикселей
    Высота : 400 пикселей
    Соотношение сторон : 16: 9
    Частота кадров : 25, 000 кадров/сек
    Цветовое пространство : YUV
    Субдискретизация насыщенности : 4: 2: 0
    Битовая глубина : 8 бит
    Тип развёртки : Прогрессивная
    Метод сжатия : С потерями
    Бит/(Пиксели*Кадры) : 0.285
    Размер потока : 1, 25 Гбайт (91%)
    Библиотека кодирования : XviD 67
    Аудио
    Идентификатор : 1
    Формат : AC-3
    Формат/Информация : Audio Coding 3
    Коммерческое название : Dolby Digital
    Идентификатор кодека : 2000
    Продолжительность : 1 ч. 26 м.
    Вид битрейта : Постоянный
    Битрейт : 192 Кбит/сек
    Каналы : 2 канала
    ChannelLayout : L R
    Частота : 48, 0 КГц
    Частота кадров : 31, 250 кадров/сек (1536 SPF)
    Метод сжатия : С потерями
    Размер потока : 119 Мбайт (9%)
    Выравнивание : Разделение по промежуткам
    Продолжительность промежутка : 40 мс. (1, 00 видеокадр)
    Время предзагрузки промежутка : 500 мс.
    ServiceKind/String : Complete Main

    Скриншоты для ознакомления



    Все одноименные релизы в Клубе Время раздачи: 24/7 (до появления первых 3-5 скачавших)

    Онлайн видео До Нового года осталось… (2019) WEB



    До Нового года осталось… (2019) WEB-DLRip
    Рейтинг →
     (голосов: 1, оценка 3/5, голосовать можно 1 раз )

    Другие торренты по теме:

  • В двух километрах от Нового года (2004) DVDRip [H.264] скачать через торрент бесплатно
  • Картинки - Символ Нового года. 2048x1152 - 100 шт [JPG] скачать через торрент бесплатно
  • VA - Зимний марафон № 219: Самые сливки Нового года (2015-2016) WEBRip [H.264 / 1080p-LQ]
  • Рамки - Блестящего Нового Года сердечно желаем мы вам [PNG]
  • Теория заговора. Ошибки тех, кто начинает новую жизнь после Нового года (12.01.2019) SATRip
  • До Нового года осталось… (2019) WEB-DL [H.264 / 1080p-LQ]
  • Ольга Фадеева | Календарь ожидания Нового года (2019) [PDF]
  • До Нового года осталось… (2019) WEB-DLRip


    • Комментарии (0):

      Информация

      Информация

        Посетители, находящиеся в группе Гости, не могут оставлять комментарии в данной новости.

        ↓ Меню




        ↓ Опрос

        Вы добавили сайт в закладки?
        Да
        Нет


        Популярное