.
Авторизация | Регистрация
bitok.xyz
» » До Нового года осталось… (2019) WEB-DL [H.264 / 1080p-LQ] торрент скачать бесплатно


    До Нового года осталось… (2019) WEB-DL [H.264 / 1080p-LQ] торрент скачать бесплатно

    Дата: 27-12-2019, 05:00 | .torrent скачали: 2

    До Нового года осталось… (2019) WEB-DL [H.264 / 1080p-LQ]Производство: Россия/Самсебесама Продакшн
    Жанр: Мелодрама, комедия
    Режиссер: Алексей Бажанов

    Актеры
    Татьяна Виноградова, Светлана Большакова, Константин Адаев, Алексей Марков, Алексей Бажанов, Анастасия Карачевская, Денис Боеревич, Алексей Сашин, Анна Леванова, Алексей Зеленский (I)

    Описание

    Новый год — это своеобразный рубеж, момент подведения итогов, принятия решений. Новый год — новое начало, время мечтать, загадывать желания и ждать чудес… Пока вся Москва скупает подарки и наряжает ёлки, Денис отчаянно старается успеть открыть бар к 31 декабря и доказать отцу свою состоятельность. Ирина всё больше погружается в работу, стараясь не замечать ни украшенного офиса, ни приближения праздников, ни собственного одиночества. Настя — студентка-первокурсница, совсем одна в чужой для нее Москве, скучает по маме, работает в кафе и, улыбаясь из последних сил, несёт людям радость и кофе. Света — Снегурочка, и кому, как не ей радоваться Новому году и дарить окружающим праздничное настроение, но и у нее не всё гладко: любимый муж полностью погружен в мир компьютерных игр и не замечает, ни сына, ни Свету, ни реальность. А всё это время Александр и Александра снимают кино про настоящую любовь, стараясь не думать о том, что их личная история не имеет ни малейшего шанса на счастливый финал. Пять чудесных историй, случившихся с совершенно разными людьми в канун Нового года на фоне заснеженного Старого Арбата.

    Возраст: 12+ (зрителям, достигшим 12 лет)
    Дата премьеры в России: 19 декабря 2019
    Цифровой релиз: 26 декабря 2019
    Продолжительность: 01: 26: 49
    Качество видео: WEB-DL
    Перевод: Не требуется (русский)
    Субтитры: Отсутствуют
    Видео: AVC/H.264, 1920x1080, ~5044 Kbps
    Аудио: AC3, 2 ch, 192 Kbps
    Общее
    Уникальный идентификатор : 232968281424285016001443113958732391851 (0xAF440F15F44E37DB8531E8BA87A6E5AB)
    Полное имя : D: NNMДо Нового года осталось…Do.Novogo.goda.ostalosj.2019.WEB-DL.1080p-LQ.mkv
    Формат : Matroska
    Версия формата : Version 4
    Размер файла : 3, 24 Гбайт
    Продолжительность : 1 ч. 26 м.
    Общий поток : 5343 Кбит/сек
    Дата кодирования : UTC 2019-12-26 14: 06: 20
    Программа кодирования : mkvmerge v6.9.1 (\'Blue Panther\') 32bit built on Apr 18 2014 18: 15: 44
    Библиотека кодирования : libebml v1.3.0 + libmatroska v1.4.1
    Видео
    Идентификатор : 1
    Формат : AVC
    Формат/Информация : Advanced Video Codec
    Профиль формата : High@L4
    Настройки формата : CABAC/4 Ref Frames
    Параметр CABAC формата : Да
    Параметр RefFrames формата : 4 кадра
    Идентификатор кодека : V_MPEG4/ISO/AVC
    Продолжительность : 1 ч. 26 м.
    Битрейт : 5044 Кбит/сек
    Ширина : 1920 пикселей
    Высота : 1080 пикселей
    Соотношение сторон : 16: 9
    Режим частоты кадров : Постоянный
    Частота кадров : 25, 000 кадров/сек
    Цветовое пространство : YUV
    Субдискретизация насыщенности : 4: 2: 0
    Битовая глубина : 8 бит
    Тип развёртки : Прогрессивная
    Бит/(Пиксели*Кадры) : 0.097
    Размер потока : 3, 06 Гбайт (94%)
    Язык : Russian
    Default : Да
    Forced : Нет
    Цветовой диапазон : Limited
    Основные цвета : BT.709
    Характеристики трансфера : BT.709
    Коэффициенты матрицы : BT.709
    Аудио
    Идентификатор : 2
    Формат : AC-3
    Формат/Информация : Audio Coding 3
    Коммерческое название : Dolby Digital
    Идентификатор кодека : A_AC3
    Продолжительность : 1 ч. 26 м.
    Вид битрейта : Постоянный
    Битрейт : 192 Кбит/сек
    Каналы : 2 канала
    ChannelLayout : L R
    Частота : 48, 0 КГц
    Частота кадров : 31, 250 кадров/сек (1536 SPF)
    Метод сжатия : С потерями
    Размер потока : 119 Мбайт (4%)
    Язык : Russian
    ServiceKind/String : Complete Main
    Default : Да
    Forced : Нет
    Меню
    00: 00: 00.000 : en: Глава 1
    00: 08: 03.840 : en: Глава 2
    00: 16: 13.600 : en: Глава 3
    00: 24: 32.320 : en: Глава 4
    00: 33: 04.280 : en: Глава 5
    00: 41: 14.640 : en: Глава 6
    00: 49: 23.480 : en: Глава 7
    00: 57: 31.400 : en: Глава 8
    01: 05: 32.480 : en: Глава 9
    01: 14: 19.720 : en: Глава 10
    01: 21: 26.360 : en: Глава 11

    Скриншоты для ознакомления



    Все одноименные релизы в Клубе Время раздачи: 24/7 (до появления первых 3-5 скачавших)

    Онлайн видео До Нового года осталось… (2019) WEB-DL [H.264



    До Нового года осталось… (2019) WEB-DL [H.264/1080p-LQ]
    Рейтинг →
     (голосов: 1, оценка 3/5, голосовать можно 1 раз )

    Другие торренты по теме:

  • В двух километрах от Нового года (2004) DVDRip [H.264] скачать через торрент бесплатно
  • Картинки - Символ Нового года. 2048x1152 - 100 шт [JPG] скачать через торрент бесплатно
  • VA - Зимний марафон № 219: Самые сливки Нового года (2015-2016) WEBRip [H.264 / 1080p-LQ]
  • Рамки - Блестящего Нового Года сердечно желаем мы вам [PNG]
  • Теория заговора. Ошибки тех, кто начинает новую жизнь после Нового года (12.01.2019) SATRip
  • До Нового года осталось… (2019) WEB-DLRip
  • Ольга Фадеева | Календарь ожидания Нового года (2019) [PDF]
  • До Нового года осталось… (2019) WEB-DLRip


    • Комментарии (0):

      Информация

      Информация

        Посетители, находящиеся в группе Гости, не могут оставлять комментарии в данной новости.

        ↓ Меню




        ↓ Опрос

        Вы добавили сайт в закладки?
        Да
        Нет


        Популярное