.
Авторизация | Регистрация
bitok.xyz
» » Только не попадись / Dont Get Caught (2018) WEB-DLRip [MVO] [Line] торрент скачать бесплатно


    Только не попадись / Dont Get Caught (2018) WEB-DLRip [MVO] [Line] торрент скачать бесплатно

    Дата: 27-12-2019, 05:00 | .torrent скачали: 0

    Только не попадись / Dont Get Caught (2018) WEB-DLRip [MVO] [Line]Производство: США/Momentum
    Жанр: Боевик, комедия
    Режиссер: Ди-Шорт

    Актеры
    E-40, Майк Эппс, Брайан Хукс, Брок Йонсен, Луэнелль, Элиз Нил, Дэн Л. Портер, Снуп Догг

    Описание

    Во время поездки за город два друга случайно натыкаются на ферму по выращиванию марихуаны. Случайная находка станет причиной того, что за их головы объявят награду в 100 000$

    Дата мировой премьеры: 5 июня 2018
    Продолжительность: 01: 18: 25
    Качество видео: WEB-DLRip
    Перевод: Профессиональный многоголосый чистый звук
    Субтитры: Отсутствуют
    Видео: XviD, 720x304, ~2456 Kbps
    Аудио: AC-3, 2 ch, 192 Kbps
    Общее
    Полное имя : D: NNMТолько не попадисьNe.popadisj.2018.WEB-DLRip.avi
    Формат : AVI
    Формат/Информация : Audio Video Interleave
    Размер файла : 1, 46 Гбайт
    Продолжительность : 1 ч. 18 м.
    Общий поток : 2658 Кбит/сек
    Программа кодирования : VirtualDubMod 1.5.10.3 |www.virtualdub-fr.org|| (build 2550/release)
    Библиотека кодирования : VirtualDubMod build 2550/release
    Видео
    Идентификатор : 0
    Формат : MPEG-4 Visual
    Профиль формата : Advanced Simple@L5
    Настройки формата : BVOP1/Custom Matrix
    Параметр BVOP формата : 1
    Параметр QPel формата : Нет
    Параметр GMC формата : Без точки перехода
    Параметр матрицы формата : Выборочная
    Идентификатор кодека : XVID
    Идентификатор кодека/Подсказка : XviD
    Продолжительность : 1 ч. 18 м.
    Битрейт : 2456 Кбит/сек
    Ширина : 720 пикселей
    Высота : 304 пикселя
    Соотношение сторон : 2, 35: 1
    Частота кадров : 24, 000 кадра/сек
    Цветовое пространство : YUV
    Субдискретизация насыщенности : 4: 2: 0
    Битовая глубина : 8 бит
    Тип развёртки : Прогрессивная
    Метод сжатия : С потерями
    Бит/(Пиксели*Кадры) : 0.468
    Размер потока : 1, 35 Гбайт (92%)
    Библиотека кодирования : XviD 1.2.1 (UTC 2008-12-04)
    Аудио
    Идентификатор : 1
    Формат : AC-3
    Формат/Информация : Audio Coding 3
    Коммерческое название : Dolby Digital
    Идентификатор кодека : 2000
    Продолжительность : 1 ч. 18 м.
    Вид битрейта : Постоянный
    Битрейт : 192 Кбит/сек
    Каналы : 2 канала
    ChannelLayout : L R
    Частота : 48, 0 КГц
    Частота кадров : 31, 250 кадров/сек (1536 SPF)
    Метод сжатия : С потерями
    Размер потока : 108 Мбайт (7%)
    Выравнивание : Разделение по промежуткам
    Продолжительность промежутка : 42 мс. (1, 00 видеокадр)
    Время предзагрузки промежутка : 500 мс.
    ServiceKind/String : Complete Main

    Скриншоты для ознакомления



    Все одноименные релизы в Клубе Время раздачи: 24/7 (до появления первых 3-5 скачавших)

    Онлайн видео Только не попадись



    Только не попадись/Dont Get Caught (2018) WEB-DLRip [MVO] [Line]
    Рейтинг →
     (голосов: 1, оценка 5/5, голосовать можно 1 раз )

    Другие торренты по теме:

  • Только не попадись / Dont Get Caught (2018) WEB-DLRip [H.264 / 720p-LQ] [MVO] [AD]
  • Только не попадись / Dont Get Caught (2018) WEB-DLRip [H.264 / 1080p-LQ] [MVO] [Line] [PR]


    • Комментарии (0):

      Информация

      Информация

        Посетители, находящиеся в группе Гости, не могут оставлять комментарии в данной новости.

        ↓ Меню




        ↓ Опрос

        Вы добавили сайт в закладки?
        Да
        Нет


        Популярное