.
Авторизация | Регистрация
bitok.xyz
» » Только не попадись / Dont Get Caught (2018) WEB-DLRip [H.264 / 1080p-LQ] [MVO] [Line] [PR] торрент скачать бесплатно


    Только не попадись / Dont Get Caught (2018) WEB-DLRip [H.264 / 1080p-LQ] [MVO] [Line] [PR] торрент скачать бесплатно

    Дата: 27-12-2019, 05:00 | .torrent скачали: 0

    Только не попадись / Dont Get Caught (2018) WEB-DLRip [H.264 / 1080p-LQ] [MVO] [Line] [PR]Производство: США/Momentum
    Жанр: Боевик, комедия
    Режиссер: Ди-Шорт

    Актеры
    E-40, Майк Эппс, Брайан Хукс, Брок Йонсен, Луэнелль, Элиз Нил, Дэн Л. Портер, Снуп Догг

    Описание

    Во время поездки за город два друга случайно натыкаются на ферму по выращиванию марихуаны. Случайная находка станет причиной того, что за их головы объявят награду в 100 000$

    Дата мировой премьеры: 5 июня 2018
    Продолжительность: 01: 18: 25
    Качество видео: WEB-DLRip
    Перевод: Профессиональный многоголосый чистый звук
    Субтитры: Отсутствуют
    Видео: AVC/H.264, 1920x818, ~5120 Kbps
    Аудио: AC-3, 2 ch, 384 Kbps
    Общее
    Уникальный идентификатор : 239101558353734772513765320378793103176 (0xB3E148FC33F1D20B824E825335388F48)
    Полное имя : D: NNMТолько не попадисьNe.popadisj.2018.WEB-DL.1080p-LQ.mkv
    Формат : Matroska
    Версия формата : Version 4
    Размер файла : 3, 01 Гбайт
    Продолжительность : 1 ч. 18 м.
    Общий поток : 5497 Кбит/сек
    Дата кодирования : UTC 2019-12-25 20: 12: 06
    Программа кодирования : mkvmerge v8.3.0 (\'Over the Horizon\') 64bit
    Библиотека кодирования : libebml v1.3.1 + libmatroska v1.4.2
    Видео
    Идентификатор : 1
    Формат : AVC
    Формат/Информация : Advanced Video Codec
    Профиль формата : High@L4
    Настройки формата : CABAC/4 Ref Frames
    Параметр CABAC формата : Да
    Параметр RefFrames формата : 4 кадра
    Идентификатор кодека : V_MPEG4/ISO/AVC
    Продолжительность : 1 ч. 18 м.
    Битрейт : 5120 Кбит/сек
    Ширина : 1920 пикселей
    Высота : 818 пикселей
    Соотношение сторон : 2, 35: 1
    Режим частоты кадров : Постоянный
    Частота кадров : 24, 000 кадра/сек
    Цветовое пространство : YUV
    Субдискретизация насыщенности : 4: 2: 0
    Битовая глубина : 8 бит
    Тип развёртки : Прогрессивная
    Бит/(Пиксели*Кадры) : 0.136
    Размер потока : 2, 80 Гбайт (93%)
    Заголовок : ELEKTRI4KA.UNIONGANG
    Библиотека кодирования : x264 core 148
    Настройки программы : cabac=1/ref=3/deblock=1: 0: 0/analyse=0x3: 0x113/me=hex/subme=7/psy=1/psy_rd=1.00: 0.00/mixed_ref=1/me_range=16/chroma_me=1/trellis=1/8x8dct=1/cqm=0/deadzone=21, 11/fast_pskip=1/chroma_qp_offset=-2/threads=26/lookahead_threads=4/sliced_threads=0/nr=0/decimate=1/interlaced=0/bluray_compat=0/constrained_intra=0/bframes=6/b_pyramid=2/b_adapt=1/b_bias=0/direct=1/weightb=1/open_gop=0/weightp=2/keyint=48/keyint_min=25/scenecut=0/intra_refresh=0/rc_lookahead=40/rc=2pass/mbtree=1/bitrate=5120/ratetol=1.0/qcomp=0.60/qpmin=0/qpmax=69/qpstep=4/cplxblur=20.0/qblur=0.5/vbv_maxrate=7680/vbv_bufsize=20480/nal_hrd=none/filler=0/ip_ratio=1.40/aq=1: 1.00
    Язык : English
    Default : Да
    Forced : Нет
    Аудио
    Идентификатор : 2
    Формат : AC-3
    Формат/Информация : Audio Coding 3
    Коммерческое название : Dolby Digital
    Идентификатор кодека : A_AC3
    Продолжительность : 1 ч. 18 м.
    Вид битрейта : Постоянный
    Битрейт : 384 Кбит/сек
    Каналы : 2 канала
    ChannelLayout : L R
    Частота : 48, 0 КГц
    Частота кадров : 31, 250 кадров/сек (1536 SPF)
    Метод сжатия : С потерями
    Размер потока : 215 Мбайт (7%)
    Заголовок : Line (ELEKTRI4KA.UNIONGANG)
    Язык : Russian
    ServiceKind/String : Complete Main
    Default : Да
    Forced : Нет

    Скриншоты для ознакомления



    Все одноименные релизы в Клубе Время раздачи: 24/7 (до появления первых 3-5 скачавших)

    Онлайн видео Только не попадись



    Только не попадись/Dont Get Caught (2018) WEB-DLRip [H.264/1080p-LQ] [MVO] [Line] [PR]
    Рейтинг →
     (голосов: 1, оценка 5/5, голосовать можно 1 раз )

    Другие торренты по теме:

  • Только не попадись / Dont Get Caught (2018) WEB-DLRip [H.264 / 720p-LQ] [MVO] [AD]
  • Только не попадись / Dont Get Caught (2018) WEB-DLRip [MVO] [Line]


    • Комментарии (0):

      Информация

      Информация

        Посетители, находящиеся в группе Гости, не могут оставлять комментарии в данной новости.

        ↓ Меню




        ↓ Опрос

        Вы добавили сайт в закладки?
        Да
        Нет


        Популярное