.
Авторизация | Регистрация
bitok.xyz
» » Дитя робота / I Am Mother (2019) BDRip [H.264 / 1080p] торрент скачать бесплатно


    Дитя робота / I Am Mother (2019) BDRip [H.264 / 1080p] торрент скачать бесплатно

    Дата: 27-12-2019, 05:00 | .torrent скачали: 1

    Дитя робота / I Am Mother (2019) BDRip [H.264 / 1080p]Производство: Австралия/The Penguin Empire, Southern Light Films, Rhea Films (II)
    Жанр: Ужасы, фантастика, триллер, драма
    Режиссер: Грант Спьютор

    Актеры
    Клара Ругор, Роуз Бирн, Хилари Суэнк, Люк Хокер, Мэдди Лентон, Саммер Лентон, Хэйзел Сэндери, Тейлия Стурзэйкер, Джейкоб Нолан, Джонни Карсон

    Описание

    После глобального катаклизма человечество вымирает. В подземном бункере автоматически активизируется аварийная программа, и робот-гуманоид Мать выращивает из эмбриона человеческого ребенка. Девушка, воспитанная под бережным присмотром Матери, никогда не видела ни поверхности Земли, ни других людей. Но однажды её мир переворачивается, когда на пороге убежища появляется женщина с просьбой о помощи.

    Возраст: 16+ (зрителям, достигшим 16 лет)
    Дата мировой премьеры: 25 января 2019
    Дата российской премьеры: 20 июня 2019
    Релиз от: mike7025
    Продолжительность: 01: 53: 35
    Качество видео: BDRip
    Перевод: Дублированный, многоголосый профессиональный
    Субтитры: Русские (forced, full х2 iTunes, FOCS), английские
    Видео: AVC/H.264, 1920х802, ~15.6 Mbps
    Аудио 1: AC3, 6 ch, 384 Kbps - Русский (Dub, iTunes)
    Аудио 2: AC3, 2 ch, 192 Kbps - Русский (МVO, HDRezka studio)
    Аудио 3: AC3, 6 ch, 640 Kbps - Русский (МVO, СВ Студия)
    Аудио 4: AC3, 6 ch, 384 Kbps - Украинский (Dub, iTunes)
    Аудио 5: DTS, 6 ch, 1509 Kbps - Английский
    x264 frame I: 1012 Avg QP: 11.63 size: 216239
    x264 frame P: 37147 Avg QP: 13.00 size: 120491
    x264 frame B: 125397 Avg QP: 14.21 size: 68783
    x264 consecutive B-frames: 3.0% 6.4% 7.6% 8.4% 13.4% 50.7% 6.4% 1.0% 1.0% 0.4% 0.5% 0.7% 0.5%
    encoded 163556 frames, 23.17 fps, 15636.39 kb/s, 12703 MB
    General
    Unique ID : 133791164270324890370904919200779675541 (0x64A73DAF4F4E17BE80C2130B53AF2795)
    Complete name : G: I.Am.Mother.2019.BDRip.1080p.mkv
    Format : Matroska
    Format version : Version 4/Version 2
    File size : 14.9 GiB
    Duration : 1 h 53 min
    Overall bit rate : 18.7 Mb/s
    Encoded date : UTC 2019-12-26 05: 37: 13
    Writing application : mkvmerge v20.0.0 (\'I Am The Sun\') 64-bit
    Writing library : libebml v1.3.5 + libmatroska v1.4.8
    Video
    ID : 1
    Format : AVC
    Format/Info : Advanced Video Codec
    Format profile : High@L4.1
    Format settings : CABAC/5 Ref Frames
    Format settings, CABAC : Yes
    Format settings, RefFrames : 5 frames
    Codec ID : V_MPEG4/ISO/AVC
    Duration : 1 h 53 min
    Bit rate : 15.6 Mb/s
    Width : 1 920 pixels
    Height : 802 pixels
    Display aspect ratio : 2.40: 1
    Frame rate mode : Constant
    Frame rate : 24.000 FPS
    Color space : YUV
    Chroma subsampling : 4: 2: 0
    Bit depth : 8 bits
    Scan type : Progressive
    Bits/(Pixel*Frame) : 0.423
    Stream size : 12.4 GiB (83%)
    Title : iFT
    Writing library : x264 core 158 r2988+50 ~ Encoded by Mocunaman in Portugal
    Encoding settings : cabac=1/ref=5/deblock=1: -3: -3/analyse=0x3: 0x113/me=umh/subme=10/psy=1/fade_compensate=0.00/psy_rd=1.00: 0.00/mixed_ref=1/me_range=32/chroma_me=1/trellis=2/8x8dct=1/cqm=0/deadzone=21, 11/fast_pskip=0/chroma_qp_offset=-2/threads=25/lookahead_threads=6/sliced_threads=0/nr=0/decimate=0/interlaced=0/bluray_compat=0/constrained_intra=0/fgo=0/bframes=12/b_pyramid=2/b_adapt=2/b_bias=0/direct=3/weightb=1/open_gop=0/weightp=2/keyint=250/keyint_min=24/scenecut=40/intra_refresh=0/rc_lookahead=60/rc=crf/mbtree=0/crf=16.3000/qcomp=0.60/qpmin=0: 0: 0/qpmax=69: 69: 69/qpstep=4/vbv_maxrate=62500/vbv_bufsize=78125/crf_max=0.0/nal_hrd=none/filler=0/ip_ratio=1.30/pb_ratio=1.20/aq=3: 0.85/aq-sensitivity=10.00/aq-factor=1.00: 1.00: 1.00/aq2=0/aq3=0
    Language : English
    Default : Yes
    Forced : No
    Color range : Limited
    Color primaries : BT.709
    Transfer characteristics : BT.709
    Matrix coefficients : BT.709
    Audio #1
    ID : 2
    Format : AC-3
    Format/Info : Audio Coding 3
    Codec ID : A_AC3
    Duration : 1 h 53 min
    Bit rate mode : Constant
    Bit rate : 384 kb/s
    Channel(s) : 6 channels
    Channel positions : Front: L C R, Side: L R, LFE
    Sampling rate : 48.0 kHz
    Frame rate : 31.250 FPS (1536 SPF)
    Bit depth : 16 bits
    Compression mode : Lossy
    Stream size : 311 MiB (2%)
    Title : Dub iTunes
    Language : Russian
    Service kind : Complete Main
    Default : Yes
    Forced : No
    Audio #2
    ID : 3
    Format : AC-3
    Format/Info : Audio Coding 3
    Codec ID : A_AC3
    Duration : 1 h 53 min
    Bit rate mode : Constant
    Bit rate : 192 kb/s
    Channel(s) : 2 channels
    Channel positions : Front: L R
    Sampling rate : 48.0 kHz
    Frame rate : 31.250 FPS (1536 SPF)
    Bit depth : 16 bits
    Compression mode : Lossy
    Stream size : 155 MiB (1%)
    Title : MVO HDrezka Studio
    Language : Russian
    Service kind : Complete Main
    Default : No
    Forced : No
    Audio #3
    ID : 4
    Format : AC-3
    Format/Info : Audio Coding 3
    Codec ID : A_AC3
    Duration : 1 h 53 min
    Bit rate mode : Constant
    Bit rate : 640 kb/s
    Channel(s) : 6 channels
    Channel positions : Front: L C R, Side: L R, LFE
    Sampling rate : 48.0 kHz
    Frame rate : 31.250 FPS (1536 SPF)
    Bit depth : 16 bits
    Compression mode : Lossy
    Stream size : 518 MiB (3%)
    Title : MVO SV Studio
    Language : Russian
    Service kind : Complete Main
    Default : No
    Forced : No
    Audio #4
    ID : 5
    Format : AC-3
    Format/Info : Audio Coding 3
    Codec ID : A_AC3
    Duration : 1 h 53 min
    Bit rate mode : Constant
    Bit rate : 384 kb/s
    Channel(s) : 6 channels
    Channel positions : Front: L C R, Side: L R, LFE
    Sampling rate : 48.0 kHz
    Frame rate : 31.250 FPS (1536 SPF)
    Bit depth : 16 bits
    Compression mode : Lossy
    Stream size : 311 MiB (2%)
    Title : Dub iTunes
    Language : Ukrainian
    Service kind : Complete Main
    Default : No
    Forced : No
    Audio #5
    ID : 6
    Format : DTS
    Format/Info : Digital Theater Systems
    Codec ID : A_DTS
    Duration : 1 h 53 min
    Bit rate mode : Constant
    Bit rate : 1 509 kb/s
    Channel(s) : 6 channels
    Channel positions : Front: L C R, Side: L R, LFE
    Sampling rate : 48.0 kHz
    Frame rate : 93.750 FPS (512 SPF)
    Bit depth : 24 bits
    Compression mode : Lossy
    Stream size : 1.20 GiB (8%)
    Language : English
    Default : No
    Forced : No
    Text #1
    ID : 7
    Format : UTF-8
    Codec ID : S_TEXT/UTF8
    Codec ID/Info : UTF-8 Plain Text
    Duration : 58 min 37 s
    Bit rate : 1 b/s
    Count of elements : 14
    Stream size : 745 Bytes (0%)
    Title : forced
    Language : Russian
    Default : Yes
    Forced : No
    Text #2
    ID : 8
    Format : UTF-8
    Codec ID : S_TEXT/UTF8
    Codec ID/Info : UTF-8 Plain Text
    Duration : 1 h 45 min
    Bit rate : 54 b/s
    Count of elements : 714
    Stream size : 41.8 KiB (0%)
    Title : iTunes
    Language : Russian
    Default : No
    Forced : No
    Text #3
    ID : 9
    Format : UTF-8
    Codec ID : S_TEXT/UTF8
    Codec ID/Info : UTF-8 Plain Text
    Duration : 1 h 45 min
    Bit rate : 51 b/s
    Count of elements : 905
    Stream size : 39.6 KiB (0%)
    Title : FOCS
    Language : Russian
    Default : No
    Forced : No
    Text #4
    ID : 10
    Format : UTF-8
    Codec ID : S_TEXT/UTF8
    Codec ID/Info : UTF-8 Plain Text
    Duration : 1 h 42 min
    Bit rate : 36 b/s
    Count of elements : 912
    Stream size : 27.7 KiB (0%)
    Language : English
    Default : No
    Forced : No
    Menu
    00: 00: 00.000 : en: Chapter 1
    00: 09: 44.125 : en: Chapter 2
    00: 19: 15.583 : en: Chapter 3
    00: 29: 00.916 : en: Chapter 4
    00: 38: 55.333 : en: Chapter 5
    00: 49: 07.500 : en: Chapter 6
    00: 59: 25.041 : en: Chapter 7
    01: 09: 57.500 : en: Chapter 8
    01: 19: 51.875 : en: Chapter 9
    01: 29: 11.041 : en: Chapter 10
    01: 42: 27.208 : en: Chapter 11

    Скриншоты для ознакомления




    Все одноименные релизы в Клубе
    Время раздачи: 24/7 (до появления первых 3-5 скачавших)

    Онлайн видео Дитя робота



    Дитя робота/I Am Mother (2019) BDRip [H.264/1080p]
    Рейтинг →
     (голосов: 1, оценка 3/5, голосовать можно 1 раз )

    Другие торренты по теме:

  • Дитя робота / I Am Mother (2019) WEB-DLRip [MVO] [AD]
  • Дитя робота / Я-мать / I Am Mother (2019) WEBRip [H.264 / 720p-LQ] [MVO]
  • Дитя робота / I Am Mother (2019) WEB-DLRip [H.264 / 1080p-LQ] [MVO] [AD]
  • Дитя робота / I Am Mother (2019) WEBRip [H.264 / 720p-LQ] [MVO]
  • Дитя робота / I Am Mother (2019) WEBRip [H.264 / 1080p-LQ] [MVO]
  • Дитя робота / I Am Mother (2019) WEB-DL [H.265 / 1080p-LQ] [MVO] [PR]
  • Дитя робота / I Am Mother (2019) WEBRip [H.264 / 720p-LQ]
  • Дитя робота / I Am Mother (2019) WEB-DLRip


    • Комментарии (0):

      Информация

      Информация

        Посетители, находящиеся в группе Гости, не могут оставлять комментарии в данной новости.

        ↓ Меню




        ↓ Опрос

        Вы добавили сайт в закладки?
        Да
        Нет


        Популярное