Подписывайся на наш канал в Telegram https://t.me/torrentok и получи доступ к торрентам без ограничений!
.
Авторизация | Регистрация
bitok.xyz
Торрент скачать бесплатно Фильмы торрент скачать Того / Togo (2019) WEBRip [H.264] [DVO] [PR] торрент скачать бесплатно


    Того / Togo (2019) WEBRip [H.264] [DVO] [PR] торрент скачать бесплатно

    Дата: 27-12-2019, 05:00 | .torrent скачали: 1

    Того / Togo (2019) WEBRip [H.264] [DVO] [PR]Производство: США/The Walt Disney Company, Walt Disney Pictures
    Жанр: Драма
    Режиссер: Эриксон Кор

    Актеры
    Уиллем Дефо, Джулианна Николсон, Кристофер Хейердал, Ричард Дормер, Эдриан Дорваль, Madeline Wickins, Майкл Грейес, Нив Нилсен, Николай Николаефф, Торбьорн Харр

    Описание

    Пёс Того в 1928 году помог предотвратить эпидемию дифтерии в городе Ном, Аляска. В упряжке с другими ездовыми собаками Того, несмотря на страшные погодные условия, смог доставить в город посылку с антитоксином, остановившим распространение болезни.

    Рейтинг MPAA: PG (рекомендуется присутствие родителей)
    Дата мировой премьеры: 20 декабря 2019
    Продолжительность: 01: 53: 00
    Качество видео: WEBRip
    Перевод: Двухголосый любительский (MUZOBOZ )
    Субтитры: Отсутствуют
    Видео: AVC/H.264, 720x360, 1100 kbps
    Аудио: АAC, 2 ch, 96 Kbps - РусскийОбщее
    Уникальный идентификатор : 198525966400990885377677050590458604047 (0x955AB5D90A156E7B994B837782A4EA0F)
    Полное имя : Togo.2019.WEBRip.AVC.mkv
    Формат : Matroska
    Версия формата : Version 4
    Размер файла : 968 Мбайт
    Продолжительность : 1 ч. 53 м.
    Общий поток : 1198 Кбит/сек
    Дата кодирования : UTC 2019-12-25 13: 42: 51
    Программа кодирования : mkvmerge v8.3.0 (\'Over the Horizon\') 64bit
    Библиотека кодирования : libebml v1.3.1 + libmatroska v1.4.2
    Видео
    Идентификатор : 1
    Формат : AVC
    Формат/Информация : Advanced Video Codec
    Профиль формата : High@L3.1
    Настройки формата : CABAC/5 Ref Frames
    Параметр CABAC формата : Да
    Параметр RefFrames формата : 5 кадров
    Идентификатор кодека : V_MPEG4/ISO/AVC
    Продолжительность : 1 ч. 53 м.
    Битрейт : 1100 Кбит/сек
    Ширина : 720 пикселей
    Высота : 360 пикселей
    Соотношение сторон : 2, 000
    Режим частоты кадров : Постоянный
    Частота кадров : 23, 976 (24000/1001) кадра/сек
    Цветовое пространство : YUV
    Субдискретизация насыщенности : 4: 2: 0
    Битовая глубина : 8 бит
    Тип развёртки : Прогрессивная
    Бит/(Пиксели*Кадры) : 0.177
    Размер потока : 889 Мбайт (92%)
    Библиотека кодирования : x264 core 148 r2795M aaa9aa8
    Настройки программы : cabac=1/ref=5/deblock=1: -1: -1/analyse=0x3: 0x113/me=umh/subme=9/psy=1/psy_rd=1.00: 0.15/mixed_ref=1/me_range=16/chroma_me=1/trellis=2/8x8dct=1/cqm=0/deadzone=21, 11/fast_pskip=1/chroma_qp_offset=-3/threads=24/lookahead_threads=2/sliced_threads=0/nr=0/decimate=1/interlaced=0/bluray_compat=0/constrained_intra=0/bframes=3/b_pyramid=2/b_adapt=2/b_bias=0/direct=3/weightb=1/open_gop=0/weightp=2/keyint=250/keyint_min=23/scenecut=40/intra_refresh=0/rc_lookahead=50/rc=2pass/mbtree=1/bitrate=1100/ratetol=1.0/qcomp=0.60/qpmin=0/qpmax=69/qpstep=4/cplxblur=20.0/qblur=0.5/ip_ratio=1.40/aq=1: 1.00
    Default : Да
    Forced : Нет
    Аудио
    Идентификатор : 2
    Формат : AAC LC SBR
    Формат/Информация : Advanced Audio Codec Low Complexity with Spectral Band Replication
    Коммерческое название : HE-AAC
    Настройки формата : Implicit
    Идентификатор кодека : A_AAC-2
    Продолжительность : 1 ч. 53 м.
    Битрейт : 96, 0 Кбит/сек
    Каналы : 2 канала
    Channel layout : L R
    Частота : 48, 0 КГц
    Частота кадров : 23, 438 кадра/сек (2048 SPF)
    Метод сжатия : С потерями
    Размер потока : 77, 6 Мбайт (8%)
    Язык : Russian
    Default : Да
    Forced : Нет
    Скриншоты для ознакомления



    Все одноименные релизы в Клубе
    Время раздачи: 24/7 (до появления первых 3-5 скачавших)

    Онлайн видео Того



    Того / Togo (2019) WEBRip [H.264] [DVO] [PR] торрент скачать бесплатно
    Рейтинг →
     (голосов: 1, оценка 4/5, голосовать можно 1 раз )

    Другие торренты по теме:

  • Того / Togo (2019) WEB-DLRip [MVO] [AD]
  • Того / Togo (2019) WEB-DLRip [H.264 / 1080p-LQ] [MVO] [AD]
  • Того / Togo (2019) WEBRip [H.264 / 1080p-LQ] [DVO]
  • Того / Togo (2019) WEB-DL [H.264 / 720p-LQ] [DVO]
  • Того / Togo (2019) WEBRip
  • Того / Togo (2019) WEBRip [DVO]
  • Того / Togo (2019) WEB-DL [H.264 / 720p-LQ] [MVO]
  • Того / Togo (2019) WEB-DLRip [H.264] (MVO)


    • Комментарии (0):

      Информация

      Информация

        Посетители, находящиеся в группе Гости, не могут оставлять комментарии в данной новости.

        ↓ Меню




        Популярное