.
Авторизация | Регистрация
bitok.xyz
» » Три секунды / The Informer (2019) WEB-DLRip [H.264] [Online] торрент скачать бесплатно


    Три секунды / The Informer (2019) WEB-DLRip [H.264] [Online] торрент скачать бесплатно

    Дата: 27-12-2019, 05:00 | .torrent скачали: 4

    Три секунды / The Informer (2019) WEB-DLRip [H.264] [Online]Производство: Великобритания/thefyzz, Thunder Road Pictures, Imagination Park Entertainment
    Жанр: Триллер, криминал, боевик
    Режиссер: Андреа Ди Стефано

    Актеры
    Ана де Армас, Розамунд Пайк, Юэль Киннаман, Клайв Оуэн, Коммон, Рут Брэдли, Сэм Спруэлл, Мартин МакКанн, Артуро Кастро, Насир Джама, Дженна Уиллис

    Описание

    Три секунды — время полета пули, выпущенной из снайперской винтовки с расстояния 1 500 метров. Именно столько времени остается, чтобы принять решение информатору Федерального Бюро Расследований, оказавшемуся в смертельной ловушке между мафией, полицией и ФБР. На кону — его семья, свобода, жизнь.

    Возраст: 18+ (зрителям, достигшим 18 лет. запрещено для детей)
    Дата мировой премьеры: 31 января 2019
    Дата российской премьеры: 24 октября 2019, MEGOGO Distribution
    Релиз от: OlLanDGroup
    Продолжительность: 01: 53: 25
    Качество видео: WEB-DLRip
    Перевод: Дублированный (Online Cin.)
    Субтитры: Английские (Full, SDH)
    Видео: AVC/H.264, 720x300, ~854 kbps
    Аудио: AAC, 2 ch, 64 kbps - Русский (Online Cin.)
    General
    Unique ID : 290328966614455736779018536387053900206 (0xDA6B5336A551048B4A23CB986E1051AE)
    Complete name : C: UsersSkandarVideosThe.Informer.2019.AMZN.WEB-DLRip(AVC).OlLanDGroup.mkv
    Format : Matroska
    Format version : Version 4
    File size : 745 MiB
    Duration : 1 h 53 min
    Overall bit rate : 918 kb/s
    Movie name : The.Informer.2019.AMZN.WEB-DLRip(AVC).OlLanDGroup#Skandar#
    Encoded date : UTC 2019-12-25 06: 58: 52
    Writing application : mkvmerge v31.0.0 (\'Dolores In A Shoestand\') 64-bit
    Writing library : libebml v1.3.6 + libmatroska v1.4.9
    Video
    ID : 1
    Format : AVC
    Format/Info : Advanced Video Codec
    Format profile : High@L4.1
    Format settings : CABAC/10 Ref Frames
    Format settings, CABAC : Yes
    Format settings, ReFrames : 10 frames
    Codec ID : V_MPEG4/ISO/AVC
    Duration : 1 h 53 min
    Bit rate : 854 kb/s
    Width : 720 pixels
    Height : 300 pixels
    Display aspect ratio : 2.40: 1
    Frame rate mode : Constant
    Frame rate : 23.976 (24000/1001) FPS
    Color space : YUV
    Chroma subsampling : 4: 2: 0
    Bit depth : 8 bits
    Scan type : Progressive
    Bits/(Pixel*Frame) : 0.165
    Stream size : 691 MiB (93%)
    Title : The.Informer.2019.AMZN.WEB-DLRip(AVC).OlLanDGroup#Skandar#
    Writing library : x264 core 146 r2538 121396c
    Encoding settings : cabac=1/ref=10/deblock=1: -3: -3/analyse=0x3: 0x133/me=umh/subme=11/psy=1/psy_rd=0.97: 0.05/mixed_ref=1/me_range=48/chroma_me=1/trellis=2/8x8dct=1/cqm=0/deadzone=21, 11/fast_pskip=0/chroma_qp_offset=-3/threads=6/lookahead_threads=1/sliced_threads=0/nr=0/decimate=0/interlaced=0/bluray_compat=0/constrained_intra=0/bframes=11/b_pyramid=2/b_adapt=2/b_bias=0/direct=3/weightb=1/open_gop=0/weightp=2/keyint=240/keyint_min=23/scenecut=40/intra_refresh=0/rc_lookahead=40/rc=2pass/mbtree=0/bitrate=854/ratetol=1.0/qcomp=0.60/qpmin=0/qpmax=69/qpstep=4/cplxblur=20.0/qblur=0.5/vbv_maxrate=50000/vbv_bufsize=62500/nal_hrd=none/filler=0/ip_ratio=1.40/pb_ratio=1.30/aq=1: 1.00
    Language : English
    Default : Yes
    Forced : No
    Audio
    ID : 2
    Format : AAC LC SBR
    Format/Info : Advanced Audio Codec Low Complexity with Spectral Band Replication
    Commercial name : HE-AAC
    Format settings : Explicit
    Codec ID : A_AAC-2
    Duration : 1 h 53 min
    Bit rate : 64.0 kb/s
    Channel(s) : 2 channels
    Channel layout : L R
    Sampling rate : 48.0 kHz
    Frame rate : 23.438 FPS (2048 SPF)
    Compression mode : Lossy
    Delay relative to video : 31 ms
    Stream size : 51.9 MiB (7%)
    Title : DUB | звук с онлайн-кинотеатра
    Language : Russian
    Default : Yes
    Forced : No
    Text #1
    ID : 3
    Format : UTF-8
    Codec ID : S_TEXT/UTF8
    Codec ID/Info : UTF-8 Plain Text
    Duration : 1 h 43 min
    Bit rate : 47 b/s
    Count of elements : 1156
    Stream size : 36.3 KiB (0%)
    Language : English
    Default : No
    Forced : No
    Text #2
    ID : 4
    Format : UTF-8
    Codec ID : S_TEXT/UTF8
    Codec ID/Info : UTF-8 Plain Text
    Duration : 1 h 52 min
    Bit rate : 52 b/s
    Count of elements : 1521
    Stream size : 43.4 KiB (0%)
    Title : SDH
    Language : English
    Default : No
    Forced : No

    Скриншоты для ознакомления



    Все одноименные релизы в Клубе
    Время раздачи: 24/7 (круглосуточно) (до появления первых 3-5 скачавших)

    Онлайн видео Три секунды



    Три секунды/The Informer (2019) WEB-DLRip [H.264] [Online]
    Рейтинг →
     (голосов: 1, оценка 4/5, голосовать можно 1 раз )

    Другие торренты по теме:

  • Три секунды / The Informer (2019) WEB-DL [H.264 / 720p]
  • Три секунды / The Informer (2019) WEB-DL [H.264 / 1080p]
  • Три секунды / The Informer (2019) WEBRip [H.264 / 720p-LQ]
  • Три секунды / The Informer (2019) WEB-DLRip
  • Три секунды / The Informer (2019) WEB-DLRip
  • Три секунды / The Informer (2019) WEB-DL [720p] ATV
  • Три секунды / The Informer (2019) WEB-DL [1080p] ATV
  • Три секунды / The Informer (2019) BDRemux [H.264 / 1080p]


    • Комментарии (0):

      Информация

      Информация

        Посетители, находящиеся в группе Гости, не могут оставлять комментарии в данной новости.

        ↓ Меню




        ↓ Опрос

        Вы добавили сайт в закладки?
        Да
        Нет


        Популярное