.
Авторизация | Регистрация
bitok.xyz
» » Дитя робота / I Am Mother (2019) BDRip [H.264 / 720p-LQ] торрент скачать бесплатно


    Дитя робота / I Am Mother (2019) BDRip [H.264 / 720p-LQ] торрент скачать бесплатно

    Дата: 27-12-2019, 05:00 | .torrent скачали: 1

    Дитя робота / I Am Mother (2019) BDRip [H.264 / 720p-LQ]Производство: Австралия/The Penguin Empire, Southern Light Films, Rhea Films (II)
    Жанр: Ужасы, фантастика, триллер, драма
    Режиссер: Грант Спьютор

    Актеры
    Роуз Бирн, Хилари Суэнк, Клара Ругор, Люк Хокер, Тейлия Стурзэйкер, Джейкоб Нолан, Хэйзел Сэндери, Саммер Лентон, Мэдди Лентон

    Описание

    После глобального катаклизма человечество вымирает. В подземном бункере автоматически активизируется аварийная программа, и робот-гуманоид Мать выращивает из эмбриона человеческого ребенка. Девушка, воспитанная под бережным присмотром Матери, никогда не видела ни поверхности Земли, ни других людей. Но однажды ее мир переворачивается, когда на пороге убежища появляется женщина с просьбой о помощи…

    Возраст: 16+ (зрителям, достигшим 16 лет)
    Дата мировой премьеры: 25 января 2019
    Дата премьеры в России: 20 июня 2019

    Релиз от: NNMClub
    Продолжительность: 01: 53: 34
    Качество видео: BDRip
    Перевод: Дублированный (iTunes)
    Субтитры: Русские (Forced, Full), английские (Full, SDH)
    Видео: AVC/H.264, 1280x536, ~2250 Kbps
    Аудио #1: AC3, 6 ch, 384 Kbps - Русский
    Аудио #2: AC3, 6 ch, 384 Kbps - Английский
    Общее
    Уникальный идентификатор : 175534172152780247566612556916860731006 (0x840EA6DF110D60B58564DCC269A93E7E)
    Полное имя : D: NNMДитя роботаI.Am.Mother.2019.BDRip.720p-LQ.NNMClub.mkv
    Формат : Matroska
    Версия формата : Version 4
    Размер файла : 2, 39 Гбайт
    Продолжительность : 1 ч. 53 м.
    Общий поток : 3012 Кбит/сек
    Название фильма : For NNMClub
    Дата кодирования : UTC 2019-12-26 06: 23: 55
    Программа кодирования : mkvmerge v6.9.1 (\'Blue Panther\') 32bit built on Apr 18 2014 18: 15: 44
    Библиотека кодирования : libebml v1.3.0 + libmatroska v1.4.1
    Видео
    Идентификатор : 1
    Формат : AVC
    Формат/Информация : Advanced Video Codec
    Профиль формата : High@L4.1
    Настройки формата : CABAC/10 Ref Frames
    Параметр CABAC формата : Да
    Параметр RefFrames формата : 10 кадров
    Идентификатор кодека : V_MPEG4/ISO/AVC
    Продолжительность : 1 ч. 53 м.
    Битрейт : 2250 Кбит/сек
    Ширина : 1280 пикселей
    Высота : 536 пикселей
    Соотношение сторон : 2, 40: 1
    Режим частоты кадров : Постоянный
    Частота кадров : 24, 000 кадра/сек
    Цветовое пространство : YUV
    Субдискретизация насыщенности : 4: 2: 0
    Битовая глубина : 8 бит
    Тип развёртки : Прогрессивная
    Бит/(Пиксели*Кадры) : 0.137
    Размер потока : 1, 73 Гбайт (73%)
    Библиотека кодирования : x264 core 146 r2538 121396c
    Настройки программы : cabac=1/ref=10/deblock=1: -3: -3/analyse=0x3: 0x113/me=umh/subme=11/psy=1/psy_rd=1.00: 0.15/mixed_ref=1/me_range=32/chroma_me=1/trellis=2/8x8dct=1/cqm=0/deadzone=21, 11/fast_pskip=0/chroma_qp_offset=-3/threads=12/lookahead_threads=2/sliced_threads=0/nr=0/decimate=0/interlaced=0/bluray_compat=0/constrained_intra=0/bframes=8/b_pyramid=2/b_adapt=2/b_bias=0/direct=3/weightb=1/open_gop=0/weightp=2/keyint=240/keyint_min=23/scenecut=40/intra_refresh=0/rc_lookahead=40/rc=2pass/mbtree=1/bitrate=2250/ratetol=1.0/qcomp=0.60/qpmin=0/qpmax=69/qpstep=4/cplxblur=20.0/qblur=0.5/vbv_maxrate=50000/vbv_bufsize=62500/nal_hrd=none/filler=0/ip_ratio=1.40/aq=1: 0.90
    Default : Да
    Forced : Нет
    Аудио #1
    Идентификатор : 2
    Формат : AC-3
    Формат/Информация : Audio Coding 3
    Коммерческое название : Dolby Digital
    Идентификатор кодека : A_AC3
    Продолжительность : 1 ч. 53 м.
    Вид битрейта : Постоянный
    Битрейт : 384 Кбит/сек
    Каналы : 6 каналов
    ChannelLayout : L R C LFE Ls Rs
    Частота : 48, 0 КГц
    Частота кадров : 31, 250 кадров/сек (1536 SPF)
    Метод сжатия : С потерями
    Размер потока : 312 Мбайт (13%)
    Заголовок : Dub - iTunes
    Язык : Russian
    ServiceKind/String : Complete Main
    Default : Да
    Forced : Нет
    Аудио #2
    Идентификатор : 3
    Формат : AC-3
    Формат/Информация : Audio Coding 3
    Коммерческое название : Dolby Digital
    Идентификатор кодека : A_AC3
    Продолжительность : 1 ч. 53 м.
    Вид битрейта : Постоянный
    Битрейт : 384 Кбит/сек
    Каналы : 6 каналов
    ChannelLayout : L R C LFE Ls Rs
    Частота : 48, 0 КГц
    Частота кадров : 31, 250 кадров/сек (1536 SPF)
    Метод сжатия : С потерями
    Размер потока : 312 Мбайт (13%)
    Заголовок : Оригинал
    Язык : English
    ServiceKind/String : Complete Main
    Default : Нет
    Forced : Нет
    Текст #1
    Идентификатор : 4
    Формат : UTF-8
    Идентификатор кодека : S_TEXT/UTF8
    Идентификатор кодека/Информация : UTF-8 Plain Text
    Заголовок : Forced
    Язык : Russian
    Default : Да
    Forced : Да
    Текст #2
    Идентификатор : 5
    Формат : UTF-8
    Идентификатор кодека : S_TEXT/UTF8
    Идентификатор кодека/Информация : UTF-8 Plain Text
    Заголовок : Full
    Язык : Russian
    Default : Нет
    Forced : Нет
    Текст #3
    Идентификатор : 6
    Формат : UTF-8
    Идентификатор кодека : S_TEXT/UTF8
    Идентификатор кодека/Информация : UTF-8 Plain Text
    Заголовок : Full
    Язык : English
    Default : Нет
    Forced : Нет
    Текст #4
    Идентификатор : 7
    Формат : UTF-8
    Идентификатор кодека : S_TEXT/UTF8
    Идентификатор кодека/Информация : UTF-8 Plain Text
    Заголовок : SDH
    Язык : English
    Default : Нет
    Forced : Нет
    Меню
    00: 00: 00.000 : en: Глава 01
    00: 10: 07.000 : en: Глава 02
    00: 19: 38.458 : en: Глава 03
    00: 29: 23.792 : en: Глава 04
    00: 39: 18.208 : en: Глава 05
    00: 49: 30.375 : en: Глава 06
    00: 59: 47.917 : en: Глава 07
    01: 10: 20.375 : en: Глава 08
    01: 20: 14.750 : en: Глава 09
    01: 29: 33.917 : en: Глава 10
    01: 42: 50.083 : en: Глава 11

    Скриншоты для ознакомления



    Все одноименные релизы в Клубе Время раздачи: 24/7 (до появления первых 3-5 скачавших)

    Онлайн видео Дитя робота



    Дитя робота/I Am Mother (2019) BDRip [H.264/720p-LQ]
    Рейтинг →
     (голосов: 1, оценка 3/5, голосовать можно 1 раз )

    Другие торренты по теме:

  • Дитя робота / I Am Mother (2019) WEB-DLRip [MVO] [AD]
  • Дитя робота / Я-мать / I Am Mother (2019) WEBRip [H.264 / 720p-LQ] [MVO]
  • Дитя робота / I Am Mother (2019) WEB-DLRip [H.264 / 1080p-LQ] [MVO] [AD]
  • Дитя робота / I Am Mother (2019) WEBRip [H.264 / 720p-LQ] [MVO]
  • Дитя робота / I Am Mother (2019) WEBRip [H.264 / 1080p-LQ] [MVO]
  • Дитя робота / I Am Mother (2019) WEB-DL [H.265 / 1080p-LQ] [MVO] [PR]
  • Дитя робота / I Am Mother (2019) WEBRip [H.264 / 720p-LQ]
  • Дитя робота / I Am Mother (2019) WEB-DLRip


    • Комментарии (0):

      Информация

      Информация

        Посетители, находящиеся в группе Гости, не могут оставлять комментарии в данной новости.

        ↓ Меню




        ↓ Опрос

        Вы добавили сайт в закладки?
        Да
        Нет


        Популярное