.
Авторизация | Регистрация
bitok.xyz
» » Пастырь / Priest (2011) BDRip [H.264 / 1080p] торрент скачать бесплатно


    Пастырь / Priest (2011) BDRip [H.264 / 1080p] торрент скачать бесплатно

    Дата: 27-12-2019, 05:00 | .torrent скачали: 1

    Пастырь / Priest (2011) BDRip [H.264 / 1080p]Производство: США
    Жанр: Ужасы, Фантастика, Боевик
    Режиссер: Скотт Чарльз Стюарт

    Актеры
    Пол Беттани, Карл Урбан, Кэм Жиганде, Мэгги Кью, Лили Коллинз, Брэд Дуриф, Стивен Мойер, Кристофер Пламмер, Алан Дэйл, Мэдчен Эмик

    Описание

    Далекое будущее. Миром правят религия и церковь. Священник, нарушая все церковные запреты, пытается выследить банду вампиров, похитивших его племянницу. В поисках ему помогают шериф и монахиня.

    Возраст: 16+ (зрителям, достигшим 16 лет)
    Рейтинг MPAA: PG-13 (детям до 13 лет просмотр нежелателен)
    Продолжительность: 01: 27: 27
    Качество: BDRip (1080p)
    Перевод: Дублированный (с ДВД лицензии R5)
    Субтитры: Русские, Английские
    Видео: AVC, 11.5 Мбит/с, 1920x800, 23.976 кадр/с
    Аудио 1: Русский (AC3, 6 ch, 448 Кбит/с)
    Аудио 2: Украинский (AC3, 6 ch, 448 Кбит/с)
    Аудио 3: Английский (DTS, 6 ch, 1536 Кбит/с) Код: выделить всеОбщее
    Уникальный идентификатор : 251674107605412294712678153120936220500 (0xBD56AB858A6D8B0283A9F1DF0299D754)
    Полное имя : W:Пастырь.2011.x264.BDRip(1080p).mkv
    Формат : Matroska
    Размер файла : 8, 47 Гбайт
    Продолжительность : 1 ч. 27 м.
    Общий поток : 13, 9 Мбит/сек
    Дата кодирования : UTC 2011-07-24 09:17:32
    Программа кодирования : mkvmerge v4.9.1 (\'Ich will\') сборка от Jul 11 2011 23:53:15
    Библиотека кодирования : libebml v1.2.1 + libmatroska v1.1.1
    Видео
    Идентификатор : 1
    Формат : AVC
    Формат/Информация : Advanced Video Codec
    Профиль формата :High@L4.1
    Параметр CABAC формата : Да
    Параметр ReFrames формата : 5 кадры
    Параметры GOP формата : M=3, N=16
    Идентификатор кодека : V_MPEG4/ISO/AVC
    Продолжительность : 1 ч. 27 м.
    Битрейт : 11, 5 Мбит/сек
    Ширина : 1920 пикс.
    Высота : 800 пикс.
    Соотношение сторон : 2, 40:1
    Частота кадров : 23, 976 кадр/сек
    Цветовое пространство : YUV
    Подвыборка цветности : 4:2:0
    Битовая глубина : 8 бит
    Тип развёртки : Прогрессивная
    Бит/(Пиксели*Кадры) : 0.311
    Размер потока : 6, 83 Гбайт (81%)
    Библиотека кодирования : x264 core 114 r1924 08d04a4
    Настройки программы : cabac=1/ref=5/deblock=1:-3:-3/analyse=0x3:0x113/me=umh/subme=10/psy=1/psy_rd=1.05:0.10/mixed_ref=1/me_range=48/chroma_me=1/trellis=2/8x8dct=1/cqm=2/deadzone=21, 11/fast_pskip=0/chroma_qp_offset=-2/threads=8/sliced_threads=0/nr=0/decimate=1/interlaced=0/constrained_intra=0/bframes=6/b_pyramid=2/b_adapt=2/b_bias=0/direct=3/weightb=1/open_gop=0/weightp=2/keyint=250/keyint_min=23/scenecut=40/intra_refresh=0/rc_lookahead=60/rc=2pass/mbtree=1/bitrate=11453/ratetol=1.0/qcomp=0.70/qpmin=1/qpmax=63/qpstep=4/cplxblur=20.0/qblur=0.5/vbv_maxrate=40000/vbv_bufsize=40000/nal_hrd=none/ip_ratio=1.40/aq=2:0.90
    Аудио #1
    Идентификатор : 2
    Формат : AC-3
    Формат/Информация : Audio Coding 3
    Расширение режима : CM (complete main)
    Идентификатор кодека : A_AC3
    Продолжительность : 1 ч. 27 м.
    Вид битрейта : Постоянный
    Битрейт : 448 Кбит/сек
    Канал(ы) : 6 канала(ов)
    Расположение каналов : Front: L C R, Side: L R, LFE
    Частота : 48, 0 КГц
    Битовая глубина : 16 бит
    Метод сжатия : С потерями
    Размер потока : 280 Мбайт (3%)
    Заголовок : Дублированный (R5)
    Язык : Russian
    Аудио #2
    Идентификатор : 3
    Формат : AC-3
    Формат/Информация : Audio Coding 3
    Расширение режима : CM (complete main)
    Идентификатор кодека : A_AC3
    Продолжительность : 1 ч. 27 м.
    Вид битрейта : Постоянный
    Битрейт : 448 Кбит/сек
    Канал(ы) : 6 канала(ов)
    Расположение каналов : Front: L C R, Side: L R, LFE
    Частота : 48, 0 КГц
    Битовая глубина : 16 бит
    Метод сжатия : С потерями
    Размер потока : 280 Мбайт (3%)
    Заголовок : Дублированный (R5)
    Язык : Ukrainian
    Аудио #3
    Идентификатор : 4
    Формат : DTS
    Формат/Информация : Digital Theater Systems
    Идентификатор кодека : A_DTS
    Продолжительность : 1 ч. 27 м.
    Вид битрейта : Постоянный
    Битрейт : 1510 Кбит/сек
    Канал(ы) : 6 канала(ов)
    Расположение каналов : Front: L C R, Side: L R, LFE
    Частота : 48, 0 КГц
    Битовая глубина : 24 бит
    Метод сжатия : С потерями
    Размер потока : 944 Мбайт (11%)
    Язык : English
    Текст #1
    Идентификатор : 5
    Формат : UTF-8
    Идентификатор кодека : S_TEXT/UTF8
    Идентификатор кодека/Информация : UTF-8 Plain Text
    Язык : Russian
    Текст #2
    Идентификатор : 6
    Формат : UTF-8
    Идентификатор кодека : S_TEXT/UTF8
    Идентификатор кодека/Информация : UTF-8 Plain Text
    Язык : English

    Скриншоты для ознакомления

    Отреставрируем и восстановим всем Клубом!

    Все одноименные релизы в Клубе
    Время раздачи: (24/7 - круглосуточно)

    Онлайн видео Пастырь



    Пастырь/Priest (2011) BDRip [H.264/1080p]
    Рейтинг →
     (голосов: 1, оценка 5/5, голосовать можно 1 раз )

    Другие торренты по теме:

  • Пастырь / Priest (2011) BDRip [H.264] [Hand Made Extended Cut]
  • Пастырь / Priest (2011) BDRip [H.264 / 720p]


    • Комментарии (0):

      Информация

      Информация

        Посетители, находящиеся в группе Гости, не могут оставлять комментарии в данной новости.

        ↓ Меню




        ↓ Опрос

        Вы добавили сайт в закладки?
        Да
        Нет


        Популярное