.
Авторизация | Регистрация
bitok.xyz
» » Эффект бабочки / The Butterfly Effect (2004) BDRip [H.264 / 720p] [Directors Cut] торрент скачать бесплатно


    Эффект бабочки / The Butterfly Effect (2004) BDRip [H.264 / 720p] [Directors Cut] торрент скачать бесплатно

    Дата: 27-12-2019, 05:00 | .torrent скачали: 1

    Эффект бабочки / The Butterfly Effect (2004) BDRip [H.264 / 720p] [Directors Cut]Производство: США, Канада/BenderSpink, FilmEngine, Katalyst Films, Province of British
    Жанр: фантастика, триллер
    Режиссер: Эрик Бресс, Дж. Макки Грубер

    Актеры
    Эштон Кутчер, Эми Смарт, Элден Хенсон, Уильям Ли Скотт, Джон Патрик Амедори, Кевин Шмидт, Ирен Горовая, Джесси Джеймс, Мелора Уолтерс, Эрик Столц

    Описание

    Мальчик Эван перенял от своего отца-психопата, ныне запертого в доме для умалишённых, странную болезнь — он не помнит некоторых эпизодов своей жизни, причем в эти моменты происходили довольно странные, а то и ужасные, события. Возмужав и поступив в колледж, Эван делает удивительное открытие. Читая дневники, которые он писал в детстве по совету врача, Эван может возвращаться в детство и своими действиями изменять будущее.

    Возраст: 16+ (зрителям, достигшим 16 лет)
    Рейтинг MPAA: R (лицам до 17 лет обязательно присутствие взрослого)
    Релиз от: k.e.n MegaPeer
    Продолжительность: 01: 59: 37
    Качество видео: BDRip 720p
    Перевод: Дублированный (+ вставки Tycoon), профессиональный двухголосый, авторский одноголосый
    Субтитры: русские, английские
    Видео: AVC, 1280x720 (16: 9), 23.976 fps, 7 106 kbps (0.322 bit/pixel)
    Аудио #1: AC3, 48 kHz, 6 ch, 384 kbps - Русский, DUB ( + вставки Tycoon)
    Аудио #2: AC3, 48 kHz, 6 ch, 448 kbps - Русский, DVO (Tycoon)
    Аудио #3: AC3, 48 kHz, 6 ch, 448 kbps - Русский, AVO А.Гаврилов
    Аудио #4: AC3, 48 kHz, 6 ch, 448 kbps - Русский, AVO Д.Есарёв
    Аудио #5: AC3, 48 kHz, 6 ch, 448 kbps - Английский, Original
    x264 info: frame I: 1315 Avg QP: 16.37 size: 122868
    x264 info: frame P: 37927 Avg QP: 18.07 size: 55223
    x264 info: frame B: 132834 Avg QP: 19.77 size: 30990
    Format : Matroska
    Format version : Version 2
    File size : 7.76 GiB
    Duration : 1 h 59 min
    Overall bit rate : 9 281 kb/s
    Encoded date : UTC 2019-12-26 11: 23: 46
    Writing application : mkvmerge v5.3.0 (\'I could have danced\') built on Feb 9 2012 10: 38: 07
    Writing library : libebml v1.2.3 + libmatroska v1.3.0
    Cover : Yes
    Attachments : cover.jpg
    Video
    ID : 1
    Format : AVC
    Format/Info : Advanced Video Codec
    Format profile : High@L4.1
    Format settings : CABAC/9 Ref Frames
    Format settings, CABAC : Yes
    Format settings, Reference frames : 9 frames
    Codec ID : V_MPEG4/ISO/AVC
    Duration : 1 h 59 min
    Bit rate : 7 106 kb/s
    Width : 1 280 pixels
    Height : 720 pixels
    Display aspect ratio : 16: 9
    Frame rate mode : Constant
    Frame rate : 23.976 (24000/1001) FPS
    Color space : YUV
    Chroma subsampling : 4: 2: 0
    Bit depth : 8 bits
    Scan type : Progressive
    Bits/(Pixel*Frame) : 0.322
    Stream size : 5.78 GiB (75%)
    Writing library : x264 core 158 r2984 3759fcb
    Encoding settings : cabac=1/ref=9/deblock=1: -3: -3/analyse=0x3: 0x133/me=umh/subme=11/psy=1/psy_rd=1.00: 0.00/mixed_ref=1/me_range=32/chroma_me=1/trellis=2/8x8dct=1/cqm=0/deadzone=21, 11/fast_pskip=0/chroma_qp_offset=-2/threads=12/lookahead_threads=3/sliced_threads=0/nr=0/decimate=0/interlaced=0/bluray_compat=0/constrained_intra=0/bframes=11/b_pyramid=2/b_adapt=2/b_bias=0/direct=3/weightb=1/open_gop=0/weightp=2/keyint=240/keyint_min=23/scenecut=40/intra_refresh=0/rc_lookahead=60/rc=2pass/mbtree=0/bitrate=7106/ratetol=1.0/qcomp=0.75/qpmin=0/qpmax=69/qpstep=4/cplxblur=20.0/qblur=0.5/vbv_maxrate=50000/vbv_bufsize=62500/nal_hrd=none/filler=0/ip_ratio=1.30/pb_ratio=1.20/aq=3: 1.00
    Language : English
    Default : Yes
    Forced : No
    Color range : Limited
    Color primaries : BT.709
    Transfer characteristics : BT.709
    Matrix coefficients : BT.709
    Audio #1
    ID : 2
    Format : AC-3
    Format/Info : Audio Coding 3
    Commercial name : Dolby Digital
    Codec ID : A_AC3
    Duration : 1 h 59 min
    Bit rate mode : Constant
    Bit rate : 384 kb/s
    Channel(s) : 6 channels
    Channel layout : L R C LFE Ls Rs
    Sampling rate : 48.0 kHz
    Frame rate : 31.250 FPS (1536 SPF)
    Bit depth : 16 bits
    Compression mode : Lossy
    Stream size : 329 MiB (4%)
    Title : DUB (со вставки Tycoon)
    Language : Russian
    Service kind : Complete Main
    Default : Yes
    Forced : No
    Audio #2
    ID : 3
    Format : AC-3
    Format/Info : Audio Coding 3
    Commercial name : Dolby Digital
    Codec ID : A_AC3
    Duration : 1 h 59 min
    Bit rate mode : Constant
    Bit rate : 448 kb/s
    Channel(s) : 6 channels
    Channel layout : L R C LFE Ls Rs
    Sampling rate : 48.0 kHz
    Frame rate : 31.250 FPS (1536 SPF)
    Bit depth : 16 bits
    Compression mode : Lossy
    Stream size : 383 MiB (5%)
    Title : DVO (Tycoon)
    Language : Russian
    Service kind : Complete Main
    Default : No
    Forced : No
    Audio #3
    ID : 4
    Format : AC-3
    Format/Info : Audio Coding 3
    Commercial name : Dolby Digital
    Codec ID : A_AC3
    Duration : 1 h 59 min
    Bit rate mode : Constant
    Bit rate : 448 kb/s
    Channel(s) : 6 channels
    Channel layout : L R C LFE Ls Rs
    Sampling rate : 48.0 kHz
    Frame rate : 31.250 FPS (1536 SPF)
    Bit depth : 16 bits
    Compression mode : Lossy
    Stream size : 383 MiB (5%)
    Title : AVO А.Гаврилов
    Language : Russian
    Service kind : Complete Main
    Default : No
    Forced : No
    Audio #4
    ID : 5
    Format : AC-3
    Format/Info : Audio Coding 3
    Commercial name : Dolby Digital
    Codec ID : A_AC3
    Duration : 1 h 59 min
    Bit rate mode : Constant
    Bit rate : 448 kb/s
    Channel(s) : 6 channels
    Channel layout : L R C LFE Ls Rs
    Sampling rate : 48.0 kHz
    Frame rate : 31.250 FPS (1536 SPF)
    Bit depth : 16 bits
    Compression mode : Lossy
    Stream size : 383 MiB (5%)
    Title : AVO Д.Есарев
    Language : Russian
    Service kind : Complete Main
    Default : No
    Forced : No
    Audio #5
    ID : 6
    Format : AC-3
    Format/Info : Audio Coding 3
    Commercial name : Dolby Digital
    Codec ID : A_AC3
    Duration : 1 h 59 min
    Bit rate mode : Constant
    Bit rate : 448 kb/s
    Channel(s) : 6 channels
    Channel layout : L R C LFE Ls Rs
    Sampling rate : 48.0 kHz
    Frame rate : 31.250 FPS (1536 SPF)
    Bit depth : 16 bits
    Compression mode : Lossy
    Stream size : 383 MiB (5%)
    Title : Original
    Language : English
    Service kind : Complete Main
    Default : No
    Forced : No
    Text #1
    ID : 7
    Format : UTF-8
    Codec ID : S_TEXT/UTF8
    Codec ID/Info : UTF-8 Plain Text
    Title : full
    Language : Russian
    Default : No
    Forced : No
    Text #2
    ID : 8
    Format : UTF-8
    Codec ID : S_TEXT/UTF8
    Codec ID/Info : UTF-8 Plain Text
    Title : full
    Language : English
    Default : No
    Forced : No
    Menu
    00: 00: 00.000 : en: The Beginning
    00: 06: 29.014 : en: Two Fathers
    00: 11: 17.677 : en: Six Years Later
    00: 16: 29.197 : en: No Memory
    00: 22: 48.576 : en: The Junkyard
    00: 26: 49.900 : en: Seven Years Later
    00: 31: 20.504 : en: Opening Up the Past
    00: 38: 53.540 : en: Dinner Talk
    00: 44: 16.028 : en: Unwanted Memories
    00: 51: 03.185 : en: Healing Scars
    00: 54: 35.481 : en: Fraternity Life
    01: 02: 38.546 : en: A Special Night
    01: 09: 47.308 : en: Incarcerated
    01: 16: 08.189 : en: Breakout
    01: 20: 27.197 : en: Day of Atonement
    01: 27: 32.956 : en: Kayleigh Hears the Truth
    01: 34: 01.344 : en: Sacrifices
    01: 42: 03.951 : en: Saving Mom
    01: 47: 12.843 : en: Institutionalized
    01: 51: 03.365 : en: Final Solution
    01: 53: 55.912 : en: End Credits

    Скриншоты для ознакомления



    Все одноименные релизы в Клубе
    Время раздачи: с 23: 00 до 8: 30 (до появления первых 3-5 скачавших)

    Онлайн видео Эффект бабочки



    Эффект бабочки/The Butterfly Effect (2004) BDRip [H.264/720p] [Directors Cut]
    Рейтинг →
     (голосов: 1, оценка 3/5, голосовать можно 1 раз )

    Другие торренты по теме:

  • Эффект бабочки / The Butterfly Effect (2004) BDRemux [1080p] [Directors Cut] скачать через торрент бесплатно
  • Эффект бабочки / The Butterfly Effect (2004) BDRemux [1080p] [Directors Cut]
  • Эффект бабочки / The Butterfly Effect (2004) BDRip [H.264 / 1080p-LQ] скачать через торрент бесплатно
  • Эффект бабочки 2 / The Butterfly Effect 2 (2006) BDRip [H.264 / 1080p-LQ] скачать через торрент бесплатно
  • Эффект бабочки 3 / The Butterfly Effect 3 (2009) BDRip [H.264 / 1080p-LQ] скачать через торрент бесплатно
  • Эффект бабочки / The Butterfly Effect (2004) BDRip [H.264 / 1080p] [Расширенная версия]
  • Джеймс Сваллоу | Эффект Бабочки / The Butterfly Effect (1 глава из 27) (2017) [MP3]


    • Комментарии (0):

      Информация

      Информация

        Посетители, находящиеся в группе Гости, не могут оставлять комментарии в данной новости.

        ↓ Меню




        ↓ Опрос

        Вы добавили сайт в закладки?
        Да
        Нет


        Популярное