.
Авторизация | Регистрация
bitok.xyz
» » Одиннадцать дней, одиннадцать ночей / Eleven Days, Eleven Nights: 11 giorni, 11 notti (1987) BDRemux [H.264 / 1080p] торрент скачать бесплатно


    Одиннадцать дней, одиннадцать ночей / Eleven Days, Eleven Nights: 11 giorni, 11 notti (1987) BDRemux [H.264 / 1080p] торрент скачать бесплатно

    Дата: 27-12-2019, 05:00 | .torrent скачали: 7

    Одиннадцать дней, одиннадцать ночей / Eleven Days, Eleven Nights: 11 giorni, 11 notti (1987) BDRemux [H.264 / 1080p]Производство: Италия, Filmirage
    Жанр: Драма, мелодрама
    Режиссер: Джо Д’Амато

    Актеры
    Джессика Мур, Джошуа МакДональд, Мэри Селер, Том Моджек, Дэвид Брэндон, Ричард Баркели, Барбара Куписти, Дон Фиоре, Роберт Глигоров, Шила Голдберг

    Описание

    Однажды на пароме случайно встречаются двое — Майкл и Сара, вспыхивает бурный роман. Но через двенадцать дней у Майкла свадьба. Сара предлагает ему оставшиеся 11 дней и ночей провести вместе…

    Возраст: 18+ (зрителям, достигшим 18 лет. запрещено для детей)
    Релиз от: Kоenig
    Продолжительность: 01: 31: 55
    Качество видео: BDRemux
    Перевод: Двуголосый профессиональный
    Субтитры: Английские
    Видео: AVC/H.264, 1920x1080р, ~35.0 Mbps
    Аудио #1: AC3, 2 ch, 192 kbps - Русский
    Аудио #2: APCM, 2 ch, 2304 kbps - Английский
    Аудио #3: APCM, 2 ch, 2304 kbps - Итальянский
    Общее
    Уникальный идентификатор : 10664720189872003390392788129246054180 (0x805F34D2AA4F722DFD5078341EB8724)
    Полное имя : Eleven.Days.Eleven.Nights.1987.1080p.GBR.BDRemux.mkv
    Формат : Matroska
    Версия формата : Version 4
    Размер файла : 25, 4 Гбайт
    Продолжительность : 1 ч. 31 м.
    Общий поток : 39, 6 Мбит/сек
    Название фильма : Eleven.Days.Eleven.Nights.1987.1080p.GBR.BDRemux by Koenig
    Дата кодирования : UTC 2019-11-15 13: 45: 07
    Программа кодирования : mkvmerge v28.2.0 (\'The Awakening\') 32-bit
    Библиотека кодирования : libebml v1.3.6 + libmatroska v1.4.9
    Обложка : Yes
    Attachments : cover.jpg
    Видео
    Идентификатор : 1
    Формат : AVC
    Формат/Информация : Advanced Video Codec
    Профиль формата : High@L4.1
    Настройки формата : CABAC/4 Ref Frames
    Параметр CABAC формата : Да
    Параметр RefFrames формата : 4 кадра
    Идентификатор кодека : V_MPEG4/ISO/AVC
    Продолжительность : 1 ч. 31 м.
    Вид битрейта : Постоянный
    Битрейт : 35, 0 Мбит/сек/35, 0 Мбит/сек
    Ширина : 1920 пикселей
    Высота : 1080 пикселей
    Соотношение сторон : 16: 9
    Режим частоты кадров : Постоянный
    Частота кадров : 23, 976 (24000/1001) кадра/сек
    Стандарт вещания : Component
    Цветовое пространство : YUV
    Субдискретизация насыщенности : 4: 2: 0
    Битовая глубина : 8 бит
    Тип развёртки : Прогрессивная
    Бит/(Пиксели*Кадры) : 0.704
    Размер потока : 22, 3 Гбайт (88%)
    Заголовок : Eleven.Days.Eleven.Nights.1987.1080p.GBR.BDRemux
    Библиотека кодирования : x264 core 148
    Настройки программы : cabac=1/ref=4/deblock=1: 0: 0/analyse=0x3: 0x113/me=umh/subme=8/psy=1/psy_rd=1.00: 0.00/mixed_ref=1/me_range=16/chroma_me=1/trellis=1/8x8dct=1/cqm=1/deadzone=21, 11/fast_pskip=1/chroma_qp_offset=-2/threads=6/lookahead_threads=1/sliced_threads=0/slices=4/nr=0/decimate=1/interlaced=0/minigop=1/stitchable=1/constrained_intra=0/bframes=2/b_pyramid=0/b_adapt=2/b_bias=0/direct=3/weightb=1/open_gop=1/weightp=1/keyint=24/keyint_min=1/scenecut=40/intra_refresh=0/rc_lookahead=24/rc=cbr/mbtree=1/bitrate=35000/ratetol=1.0/qcomp=0.60/qpmin=3/qpmax=69/qpstep=4/vbv_maxrate=35000/vbv_bufsize=30000/nal_hrd=cbr/filler=1/ip_ratio=1.40/aq=1: 1.00
    Язык : Italian
    Default : Да
    Forced : Нет
    Цветовой диапазон : Limited
    Основные цвета : BT.709
    Характеристики трансфера : BT.709
    Коэффициенты матрицы : BT.709
    Аудио #1
    Идентификатор : 2
    Формат : AC-3
    Формат/Информация : Audio Coding 3
    Коммерческое название : Dolby Digital
    Идентификатор кодека : A_AC3
    Продолжительность : 1 ч. 31 м.
    Вид битрейта : Постоянный
    Битрейт : 192 Кбит/сек
    Каналы : 2 канала
    Channel layout : L R
    Частота : 48, 0 КГц
    Частота кадров : 31, 250 кадров/сек (1536 SPF)
    Битовая глубина : 16 бит
    Метод сжатия : С потерями
    Размер потока : 126 Мбайт (0%)
    Заголовок : DVO
    Язык : Russian
    ServiceKind/String : Complete Main
    Default : Да
    Forced : Нет
    Аудио #2
    Идентификатор : 3
    Формат : PCM
    Настройки формата : Little/Signed
    Идентификатор кодека : A_PCM/INT/LIT
    Продолжительность : 1 ч. 31 м.
    Вид битрейта : Постоянный
    Битрейт : 2304 Кбит/сек
    Каналы : 2 канала
    Частота : 48, 0 КГц
    Частота кадров : 200, 000 кадров/сек (240 SPF)
    Битовая глубина : 24 бит
    Размер потока : 1, 48 Гбайт (6%)
    Язык : English
    Default : Нет
    Forced : Нет
    Аудио #3
    Идентификатор : 4
    Формат : PCM
    Настройки формата : Little/Signed
    Идентификатор кодека : A_PCM/INT/LIT
    Продолжительность : 1 ч. 31 м.
    Вид битрейта : Постоянный
    Битрейт : 2304 Кбит/сек
    Каналы : 2 канала
    Частота : 48, 0 КГц
    Частота кадров : 200, 000 кадров/сек (240 SPF)
    Битовая глубина : 24 бит
    Размер потока : 1, 48 Гбайт (6%)
    Язык : Italian
    Default : Нет
    Forced : Нет
    Текст
    Идентификатор : 5
    Формат : UTF-8
    Идентификатор кодека : S_TEXT/UTF8
    Идентификатор кодека/Информация : UTF-8 Plain Text
    Продолжительность : 1 ч. 26 м.
    Битрейт : 42 бит/сек
    ElementCount : 1051
    Размер потока : 27, 2 Кбайт (0%)
    Язык : English
    Default : Нет
    Forced : Нет
    Меню
    00: 00: 00.000 : en:
    00: 02: 57.093 : en:
    00: 08: 34.013 : en:
    00: 20: 05.078 : en:
    00: 29: 56.002 : en:
    00: 41: 45.753 : en:
    00: 52: 26.601 : en:
    01: 02: 43.843 : en:
    01: 08: 41.325 : en:
    01: 13: 47.089 : en:
    01: 20: 01.087 : en:
    01: 26: 42.655 : en:
    01: 31: 45.500 : en:

    Скриншоты для ознакомления




    Все одноименные релизы в Клубе
    Время раздачи: до появления первых 3-5 скачавших (до появления первых 3-5 скачавших)

    Онлайн видео Одиннадцать дней, одиннадцать ночей



    Одиннадцать дней, одиннадцать ночей/Eleven Days, Eleven Nights: 11 giorni, 11 notti (1987) BDRemux [H.264/1080p]
    Рейтинг →
     (голосов: 1, оценка 3/5, голосовать можно 1 раз )

    Другие торренты по теме:

  • Кира Измайлова | Одиннадцать дней вечности (2017) [FB2]
  • Кира Измайлова | С феями шутки плохи. Чудовища из Норвуда. Одиннадцать дней вечности (2018) [MP3]


    • Комментарии (0):

      Информация

      Информация

        Посетители, находящиеся в группе Гости, не могут оставлять комментарии в данной новости.

        ↓ Меню




        ↓ Опрос

        Вы добавили сайт в закладки?
        Да
        Нет


        Популярное