.
Авторизация | Регистрация
bitok.xyz
» » Битва при Сэкигахара (Сэкигахара) / Sekigahara (2017) BDRip [H.264 / 1080p] [VO] торрент скачать бесплатно


    Битва при Сэкигахара (Сэкигахара) / Sekigahara (2017) BDRip [H.264 / 1080p] [VO] торрент скачать бесплатно

    Дата: 27-12-2019, 05:00 | .torrent скачали: 2

    Битва при Сэкигахара (Сэкигахара) / Sekigahara (2017) BDRip [H.264 / 1080p] [VO]Производство: Япония, Django Film, Toho Pictures
    Жанр: Военный, драма, биография, история
    Режиссер: Масато Харада
    Участники: Касуми Аримура, Норико Накагоси, Мицу Дан, Кодзи Якусё, Дзюнъити Окада, Такэхиро Хира, Масахиро Хигасидэ, Ясумаса Оба, Мацуяма Кэнъити, Сихо Харуми, Сю Накадзима, Аюми Ито, Икудзи Накамура, Акадзи Маро и др.

    Описание

    21 октября 1600 года на равнине Сэкигараха состоялось самое значительное сражение в истории Японии. Схватка между Восточным альянсом Токугавы Иэясу и Западной армией наследников клана Тоётоми, решившая судьбу новой объединенной Японии.

    Продолжительность: 02: 29: 03
    Качество видео: BDRip
    Перевод: Одноголосый закадровый, любительский (Den904)
    Субтитры: отсутствуют
    Видео: AVC/H.264, 1920x804, ~12, 9 Mbps
    Аудио: AC3, 2 ch, 192 Kbps
    Общее
    Уникальный идентификатор : 171598883809177421860290360656699999193 (0x8118BE2D10E333E7B7F79434416A43D9)
    Полное имя : F: КИНОSekigahara 2017.mkv
    Формат : Matroska
    Версия формата : Version 4
    Размер файла : 13, 6 Гбайт
    Продолжительность : 2 ч. 29 м.
    Общий поток : 13, 1 Мбит/сек
    Название фильма : Jubowo @ WiKi
    Дата кодирования : UTC 2018-08-17 13: 41: 23
    Программа кодирования : mkvmerge v6.2.0 (\'Promised Land\') built on Apr 28 2013 12: 22: 01
    Библиотека кодирования : libebml v1.3.0 + libmatroska v1.4.0
    Видео
    Идентификатор : 1
    Формат : AVC
    Формат/Информация : Advanced Video Codec
    Профиль формата : High@L4.1
    Настройки формата : CABAC/5 Ref Frames
    Параметр CABAC формата : Да
    Параметр RefFrames формата : 5 кадров
    Идентификатор кодека : V_MPEG4/ISO/AVC
    Продолжительность : 2 ч. 29 м.
    Битрейт : 12, 9 Мбит/сек
    Ширина : 1920 пикселей
    Высота : 804 пикселя
    Соотношение сторон : 2, 40: 1
    Режим частоты кадров : Постоянный
    Частота кадров : 23, 976 (24000/1001) кадра/сек
    Цветовое пространство : YUV
    Субдискретизация насыщенности : 4: 2: 0
    Битовая глубина : 8 бит
    Тип развёртки : Прогрессивная
    Бит/(Пиксели*Кадры) : 0.349
    Размер потока : 13, 2 Гбайт (97%)
    Библиотека кодирования : x264 core 129 r2245+704+36 8e61944 tMod+MixAQ 8-bit@4: 2: 0 X86_64
    Настройки программы : cabac=1/ref=5/deblock=1: -3: -3/analyse=0x3: 0x133/me=umh/subme=11/psy=1/fade_compensate=0.00/psy_rd=1.05: 0.10/mixed_ref=1/me_range=64/chroma_me=1/trellis=2/8x8dct=1/cqm=0/deadzone=21, 11/fast_pskip=0/chroma_qp_offset=-3/threads=18/lookahead_threads=3/sliced_threads=0/nr=0/decimate=0/interlaced=0/bluray_compat=0/constrained_intra=0/fgo=0/bframes=10/b_pyramid=2/b_adapt=2/b_bias=0/direct=3/weightb=1/open_gop=0/weightp=2/keyint=250/keyint_min=23/scenecut=40/intra_refresh=0/rc_lookahead=80/rc=2pass/mbtree=1/bitrate=12900/ratetol=1.0/qcomp=0.70/qpmin=0/qpmax=69/qpstep=4/cplxblur=20.0/qblur=0.5/ip_ratio=1.40/aq=1/aq-strength=0.85/aq-sensitivity=10.00/aq-ifactor=1.00/aq-pfactor=1.00/aq-bfactor=1.00/aq2=0
    Язык : Japanese
    Default : Да
    Forced : Нет
    Аудио
    Идентификатор : 2
    Формат : AC-3
    Формат/Информация : Audio Coding 3
    Коммерческое название : Dolby Digital
    Идентификатор кодека : A_AC3
    Продолжительность : 2 ч. 29 м.
    Вид битрейта : Постоянный
    Битрейт : 192 Кбит/сек
    Каналы : 2 канала
    ChannelLayout : L R
    Частота : 48, 0 КГц
    Частота кадров : 31, 250 кадров/сек (1536 SPF)
    Метод сжатия : С потерями
    Размер потока : 205 Мбайт (1%)
    ServiceKind/String : Complete Main
    Default : Да
    Forced : Нет


    Онлайн видео Битва при Сэкигахара (Сэкигахара)



    Битва при Сэкигахара (Сэкигахара)/Sekigahara (2017) BDRip [H.264/1080p] [VO]
    Рейтинг →
     (голосов: 1, оценка 5/5, голосовать можно 1 раз )

    Другие торренты по теме:

  • Битва при Сэкигахара / Сэкигахара / Sekigahara (2017) HDRip [H.264] [MVO]
  • Николай Рудаков | Великие объединители Японии. Токугава Иэясу. Битва при Сэкигахара (2015) [PDF]


    • Комментарии (0):

      Информация

      Информация

        Посетители, находящиеся в группе Гости, не могут оставлять комментарии в данной новости.

        ↓ Меню




        ↓ Опрос

        Вы добавили сайт в закладки?
        Да
        Нет


        Популярное

        Полицейский с Рублёвки. Новогодний беспредел 2 (2019) CamRip [AD]

        (скачиваний: 2276)
        Властелин колец: Трилогия / The Lord of the Rings: Trilogy (2001,2002,2003) BDRip [H.264] [Extended Editions] скачать через торрент бесплатно

        (скачиваний: 672)
        Властелин колец / The Lord of the Rings (2001,2002,2003) BDRip [Extended Edition] [H.264 / 1080p-LQ] [Hi10P]

        (скачиваний: 661)
        Начало / Inception (2010) BDRip [H.265 / 1080p]

        (скачиваний: 642)
        Властелин колец / The Lord of the Rings (2001,2002,2003) BDRip [1080p] [Extended Edition] [Трилогия]

        (скачиваний: 608)
        Квартирник НТВ у Маргулиса. Новогодний выпуск (31.12.2019) WEB-DL [H.264 / 1080p-LQ]

        (скачиваний: 456)
        Каникулы off-line (2018) WEBRip

        (скачиваний: 438)
        Хоббит: Трилогия / The Hobbit: Trilogy (2012, 2013, 2014) BDRip [H.265 / 1080p-LQ] [10-bit] [Расширенная версия]

        (скачиваний: 398)
        Властелин колец / The Lord of the Rings (2001,2002,2003) BDRip [1080p] [Extended Edition] [Трилогия] скачать через торрент бесплатно

        (скачиваний: 277)
        Во все тяжкие / Breaking Bad (2008-2013) BDRip [H.264 / 1080p] (сезон 1-5, серии 1-62 из 62) Кубик в Кубе, LostFilm скачать через торрент бесплатно

        (скачиваний: 256)