.
Авторизация | Регистрация
bitok.xyz
» » Камбэк (2019) WEBRip торрент скачать бесплатно


    Камбэк (2019) WEBRip торрент скачать бесплатно

    Дата: 27-12-2019, 05:00 | .torrent скачали: 8

    Камбэк (2019) WEBRipПроизводство: Россия
    Жанр: Короткометражный, комедия
    Режиссер: Евгений Корчагин

    Актеры
    Денис Пьянов, Ян Цапник, Михаил Шац, Светлана Корчагина, Даниил Чибриков, Данила Якушев, Светлана Саягова, Тимофей Трибунцев, Максим Демченко

    Описание

    Неудачливый актёр Сергей Ольховский предпринимает отчаянную попытку вписаться в киноиндустрию, следуя распространённым стереотипам о том, как всё устроено. Всё оказывается устроено сложнее, чем он думал.

    Возраст: 18+ (зрителям, достигшим 18 лет. запрещено для детей)
    Релиз от: Алехаndr
    Продолжительность: 00: 24: 27
    Качество видео: WEBRip
    Субтитры: Отсутствуют
    Внимание! Присутствует ненормативная лексика.
    Видео: Xvid, 720x304 (2.35: 1), ~1765 Kbps
    Аудио: AC3, 2 ch, 192 Kbps
    Общее
    Полное имя : D: Камбэк (2019).by.Алехаndr.avi
    Формат : AVI
    Формат/Информация : Audio Video Interleave
    Размер файла : 345 Мбайт
    Продолжительность : 24 м. 27 с.
    Общий поток : 1970 Кбит/сек
    Программа кодирования : Lavf58.29.100
    Видео
    Идентификатор : 0
    Формат : MPEG-4 Visual
    Профиль формата : Advanced Simple@L5
    Настройки формата : BVOP2
    Параметр BVOP формата : 2
    Параметр QPel формата : Нет
    Параметр GMC формата : Без точки перехода
    Параметр матрицы формата : Default (MPEG)
    Идентификатор кодека : XVID
    Идентификатор кодека/Подсказка : XviD
    Продолжительность : 24 м. 26 с.
    Битрейт : 1767 Кбит/сек
    Ширина : 720 пикселей
    Высота : 304 пикселя
    Соотношение сторон : 2, 35: 1
    Частота кадров : 25, 000 кадров/сек
    Цветовое пространство : YUV
    Субдискретизация насыщенности : 4: 2: 0
    Битовая глубина : 8 бит
    Тип развёртки : Прогрессивная
    Метод сжатия : С потерями
    Бит/(Пиксели*Кадры) : 0.323
    Размер потока : 309 Мбайт (90%)
    Библиотека кодирования : XviD 67
    Аудио
    Идентификатор : 1
    Формат : AC-3
    Формат/Информация : Audio Coding 3
    Коммерческое название : Dolby Digital
    Идентификатор кодека : 2000
    Продолжительность : 24 м. 27 с.
    Вид битрейта : Постоянный
    Битрейт : 192 Кбит/сек
    Каналы : 2 канала
    ChannelLayout : L R
    Частота : 48, 0 КГц
    Частота кадров : 31, 250 кадров/сек (1536 SPF)
    Битовая глубина : 16 бит
    Метод сжатия : С потерями
    Размер потока : 33, 6 Мбайт (10%)
    Выравнивание : Соединение по промежуткам
    Продолжительность промежутка : 32 мс. (0, 80 видеокадр)
    ServiceKind/String : Complete Main

    Скриншоты для ознакомления



    Все одноименные релизы в Клубе
    Время раздачи: 24/7 (круглосуточно) (до появления первых 3-5 скачавших)

    Камбэк (2019) WEBRip
    Рейтинг →
     (голосов: 1, оценка 3/5, голосовать можно 1 раз )

    Другие торренты по теме:



      Комментарии (0):

      Информация

      Информация

        Посетители, находящиеся в группе Гости, не могут оставлять комментарии в данной новости.

        ↓ Меню




        ↓ Опрос

        Вы добавили сайт в закладки?
        Да
        Нет


        Популярное