.
Авторизация | Регистрация
bitok.xyz
» » Лодка со стеклянным дном / The Glass Bottom Boat (1966) WEB-DLRip [H.264] [VO] торрент скачать бесплатно


    Лодка со стеклянным дном / The Glass Bottom Boat (1966) WEB-DLRip [H.264] [VO] торрент скачать бесплатно

    Дата: 27-12-2019, 05:00 | .torrent скачали: 1

    Лодка со стеклянным дном / The Glass Bottom Boat (1966) WEB-DLRip [H.264] [VO]Производство: США/Arwin Productions, Euterpe Inc., Metro-Goldwyn-Mayer (MGM), Reame Productions
    Жанр: Мелодрама, Комедия
    Режиссер: Фрэнк Тэшлин
    Продюсер: Эверетт Фриман, Мартин Мелчер

    Актеры
    Дорис Дэй, Род Тейлор, Артур Годфри, Джон МакГайвер, Пол Линде, Эдвард Эндрюс, Эрик Флеминг, Дом ДеЛуис, Дик Мартин, Элизабет Фрайзер

    Описание

    Дженнифер Нельсон и Брюс Темплтон встречаются при весьма забавных обстоятельствах: во время рыбалки Брюс выуживает из океана странный костюм, который оказывается нижней частью снаряжения проплывающей мимо Дженнифер, а именно — хвостом русалки.

    Релиз от: Охрана (NNMCLUB)
    Продолжительность: 01: 50: 09
    Качество видео: WEB-DLRip
    Перевод: Одноголосый любительский, binjak
    Субтитры: Русские, английские (SDH)
    Видео: AVC/H.264, 1024x576, ~2750 Kbps
    Аудио 1: AC3, 2 ch, 192 Kbps, 48.0 kHz – Русский
    Аудио 2: AC3, 2 ch, 128 Kbps, 48.0 kHz – Английский
    Общее
    Уникальный идентификатор : 193925876600263841988216564476995348120 (0x91E4C3E8F87919CEBEB673461AD6A698)
    Полное имя : B: DownloadsЛодка со стеклянным дном. 1966. NNMCLUB.mkv
    Формат : Matroska
    Версия формата : Version 4/Version 2
    Размер файла : 2, 36 Гбайт
    Продолжительность : 1 ч. 50 м.
    Общий поток : 3072 Кбит/сек
    Дата кодирования : UTC 2019-12-25 22: 02: 19
    Программа кодирования : mkvmerge v7.9.0 (\'Birds\') 64bit
    Библиотека кодирования : libebml v1.3.1 + libmatroska v1.4.2
    Видео
    Идентификатор : 1
    Формат : AVC
    Формат/Информация : Advanced Video Codec
    Профиль формата : High@L4.1
    Настройки формата : CABAC/12 Ref Frames
    Параметр CABAC формата : Да
    Параметр RefFrames формата : 12 кадров
    Идентификатор кодека : V_MPEG4/ISO/AVC
    Продолжительность : 1 ч. 50 м.
    Битрейт : 2750 Кбит/сек
    Ширина : 1024 пикселя
    Высота : 576 пикселей
    Соотношение сторон : 16: 9
    Режим частоты кадров : Постоянный
    Частота кадров : 23, 976 (24000/1001) кадра/сек
    Цветовое пространство : YUV
    Субдискретизация насыщенности : 4: 2: 0
    Битовая глубина : 8 бит
    Тип развёртки : Прогрессивная
    Бит/(Пиксели*Кадры) : 0.194
    Размер потока : 2, 12 Гбайт (90%)
    Заголовок : The Glass Bottom Boat
    Библиотека кодирования : x264 core 146 r2538 121396c
    Настройки программы : cabac=1/ref=12/deblock=1: -1: -1/analyse=0x3: 0x113/me=umh/subme=10/psy=1/psy_rd=1.00: 0.10/mixed_ref=1/me_range=32/chroma_me=1/trellis=2/8x8dct=1/cqm=0/deadzone=21, 11/fast_pskip=0/chroma_qp_offset=-3/threads=6/lookahead_threads=1/sliced_threads=0/nr=0/decimate=0/interlaced=0/bluray_compat=0/constrained_intra=0/bframes=7/b_pyramid=2/b_adapt=2/b_bias=0/direct=3/weightb=1/open_gop=0/weightp=2/keyint=250/keyint_min=25/scenecut=40/intra_refresh=0/rc_lookahead=60/rc=2pass/mbtree=1/bitrate=2750/ratetol=1.0/qcomp=0.60/qpmin=0/qpmax=69/qpstep=4/cplxblur=20.0/qblur=0.5/vbv_maxrate=14000/vbv_bufsize=14000/nal_hrd=none/filler=0/ip_ratio=1.40/aq=1: 1.00
    Язык : English
    Default : Да
    Forced : Нет
    Аудио #1
    Идентификатор : 2
    Формат : AC-3
    Формат/Информация : Audio Coding 3
    Идентификатор кодека : A_AC3
    Продолжительность : 1 ч. 50 м.
    Вид битрейта : Постоянный
    Битрейт : 192 Кбит/сек
    Каналы : 2 канала
    Расположение каналов : Front: L R
    Частота : 48, 0 КГц
    Частота кадров : 31, 250 кадров/сек (1536 SPF)
    Битовая глубина : 16 бит
    Метод сжатия : С потерями
    Размер потока : 151 Мбайт (6%)
    Заголовок : Одноголосый закадровый, binjak
    Язык : Russian
    ServiceKind/String : Complete Main
    Default : Да
    Forced : Нет
    Аудио #2
    Идентификатор : 3
    Формат : AC-3
    Формат/Информация : Audio Coding 3
    Идентификатор кодека : A_AC3
    Продолжительность : 1 ч. 50 м.
    Вид битрейта : Постоянный
    Битрейт : 128 Кбит/сек
    Каналы : 2 канала
    Расположение каналов : Front: L R
    Частота : 48, 0 КГц
    Частота кадров : 31, 250 кадров/сек (1536 SPF)
    Битовая глубина : 16 бит
    Метод сжатия : С потерями
    Размер потока : 101 Мбайт (4%)
    Заголовок : Английский
    Язык : English
    ServiceKind/String : Complete Main
    Default : Нет
    Forced : Нет
    Текст #1
    Идентификатор : 4
    Формат : UTF-8
    Идентификатор кодека : S_TEXT/UTF8
    Идентификатор кодека/Информация : UTF-8 Plain Text
    Продолжительность : 1 ч. 49 м.
    Битрейт : 106 бит/сек
    ElementCount : 1316
    Размер потока : 85, 1 Кбайт (0%)
    Заголовок : Full
    Язык : Russian
    Default : Нет
    Forced : Нет
    Текст #2
    Идентификатор : 5
    Формат : UTF-8
    Идентификатор кодека : S_TEXT/UTF8
    Идентификатор кодека/Информация : UTF-8 Plain Text
    Продолжительность : 1 ч. 49 м.
    Битрейт : 71 бит/сек
    ElementCount : 2243
    Размер потока : 57, 1 Кбайт (0%)
    Заголовок : SDH
    Язык : English
    Default : Нет
    Forced : Нет

    Скриншоты для ознакомления




    Все одноименные релизы в Клубе
    Время раздачи: с 13: 00 до 01: 00 МСК, выходные круглосуточно (до появления первых 3-5 скачавших)

    Онлайн видео Лодка со стеклянным дном



    Лодка со стеклянным дном/The Glass Bottom Boat (1966) WEB-DLRip [H.264] [VO]
    Рейтинг →
     (голосов: 1, оценка 3/5, голосовать можно 1 раз )

    Другие торренты по теме:

  • Лодка со стеклянным дном / The Glass Bottom Boat (1966) DVDRip [H.264] [VO] скачать через торрент бесплатно


    • Комментарии (0):

      Информация

      Информация

        Посетители, находящиеся в группе Гости, не могут оставлять комментарии в данной новости.

        ↓ Меню




        ↓ Опрос

        Вы добавили сайт в закладки?
        Да
        Нет


        Популярное