.
Авторизация | Регистрация
bitok.xyz
» » Бар «На грудь» (2018) WEBRip (сезон 1, серии 1-8 из 8) торрент скачать бесплатно


    Бар «На грудь» (2018) WEBRip (сезон 1, серии 1-8 из 8) торрент скачать бесплатно

    Дата: 27-12-2019, 05:00 | .torrent скачали: 5

    Бар «На грудь» (2018) WEBRip (сезон 1, серии 1-8 из 8)Производство: Россия/Киностудия МИМ по заказу Rutube
    Жанр: комедия
    Режиссер: Ирина Вилкова

    Актеры
    Денис Пьянов, Вера Фомина, Антон Сухарев, Кирилл Полухин, Татьяна Малыщицкая, Александр Баширов, Анна Иванина, Дмитрий Аверин, Ирина Вилкова, Анна Жмаева и др.

    Описание

    Вновь обремененные насущными проблемами, жители Петербурга приходят в уже родной им бар — На грудь, утолить свою тоску и обсудить воображаемую безнадежность бытия. Ведь там их всегда выслушают и… нальют. Страдать становится куда приятней, а посетителей со своими душещипательными историями — все больше.

    Возраст: 18+ (зрителям, достигшим 18 лет. запрещено для детей)
    Релиз от: Алехаndr
    Продолжительность: ~00: 10: 00 серия
    Качество видео: WEBRip
    Внимание! Присутствует ненормативная лексика!
    Видео: Xvid, 720x400 (16: 9), ~1715 Kbps
    Аудио: AC3, 2 ch, 192 Kbps
    Общее
    Полное имя : D: Bar.na.grud.S01 (2018)Bar.na.grud.S01.E01.by.Алехаndr.avi
    Формат : AVI
    Формат/Информация : Audio Video Interleave
    Размер файла : 105 Мбайт
    Продолжительность : 7 м. 40 с.
    Общий поток : 1917 Кбит/сек
    Название фильма : Бар. РќР° РіСЂСѓРґСЊ. 1 сезон. 1 серия.by.РђРехаndr
    Программа кодирования : Lavf58.29.100
    Видео
    Идентификатор : 0
    Формат : MPEG-4 Visual
    Профиль формата : Advanced Simple@L5
    Настройки формата : BVOP2
    Параметр BVOP формата : 2
    Параметр QPel формата : Нет
    Параметр GMC формата : Без точки перехода
    Параметр матрицы формата : Default (MPEG)
    Идентификатор кодека : XVID
    Идентификатор кодека/Подсказка : XviD
    Продолжительность : 7 м. 40 с.
    Битрейт : 1714 Кбит/сек
    Ширина : 720 пикселей
    Высота : 400 пикселей
    Соотношение сторон : 16: 9
    Частота кадров : 25, 000 кадров/сек
    Цветовое пространство : YUV
    Субдискретизация насыщенности : 4: 2: 0
    Битовая глубина : 8 бит
    Тип развёртки : Прогрессивная
    Метод сжатия : С потерями
    Бит/(Пиксели*Кадры) : 0.238
    Размер потока : 94, 2 Мбайт (89%)
    Библиотека кодирования : XviD 67
    Аудио
    Идентификатор : 1
    Формат : AC-3
    Формат/Информация : Audio Coding 3
    Коммерческое название : Dolby Digital
    Идентификатор кодека : 2000
    Продолжительность : 7 м. 40 с.
    Вид битрейта : Постоянный
    Битрейт : 192 Кбит/сек
    Каналы : 2 канала
    ChannelLayout : L R
    Частота : 48, 0 КГц
    Частота кадров : 31, 250 кадров/сек (1536 SPF)
    Битовая глубина : 16 бит
    Метод сжатия : С потерями
    Размер потока : 10, 5 Мбайт (10%)
    Выравнивание : Соединение по промежуткам
    Продолжительность промежутка : 32 мс. (0, 80 видеокадр)
    ServiceKind/String : Complete Main


    Онлайн видео Бар «На грудь» (2018) WEBRip (сезон любимого сериала 1, серии 1



    Бар «На грудь» (2018) WEBRip (сезон 1, серии 1-8 из 8)
    Рейтинг →
     (голосов: 1, оценка 4/5, голосовать можно 1 раз )

    Другие торренты по теме:

  • На грудь (2017) WEBRip [H.264 / 1080p-LQ]
  • Бар. На грудь (2018) WEBRip [H.264 / 720p-LQ] (серии 1-2 из ) (обновляемая)
  • Бар «На грудь» (2019) WEBRip [H.264 / 1080p-LQ] (сезон 2, серии 1-5 из 8) (обновляемая)
  • Бар «На грудь» (2019) WEBRip (сезон 2, серии 1-5 из 8) (обновляемая)
  • Бар «На грудь» (2018) WEBRip [H.264 / 2160p-LQ] (сезон 1, серии 1-8 из 8)


    • Комментарии (0):

      Информация

      Информация

        Посетители, находящиеся в группе Гости, не могут оставлять комментарии в данной новости.

        ↓ Меню




        ↓ Опрос

        Вы добавили сайт в закладки?
        Да
        Нет


        Популярное