.
Авторизация | Регистрация
bitok.xyz
» » Оно 2 / It Chapter Two (2019) BDRip [H.264] торрент скачать бесплатно


    Оно 2 / It Chapter Two (2019) BDRip [H.264] торрент скачать бесплатно

    Дата: 28-12-2019, 05:00 | .torrent скачали: 0

    Оно 2 / It Chapter Two (2019) BDRip [H.264]Производство: Канада, США/KatzSmith Productions, Lin Pictures, New Line Cinema
    Жанр: Ужасы, фэнтези, драма
    Режиссер: Андрес Мускетти
    Продюсер: Рой Ли, Дэн Лин, Richard Brenner

    Актеры
    Джессика Честейн, Джеймс МакЭвой, Билл Хэйдер, Айзая Мустафа, Джей Райан, Джеймс Рэнсон, Энди Бин, Билл Скарсгард, Джейден Мартелл, Уайатт Олефф

    Описание

    Проходит 27 лет после первой встречи ребят с демоническим Пеннивайзом. Они выросли, покинули родной городок и практически забыли о тех страшных событиях, но неожиданно в их взрослые проблемы вторгается телефонный звонок. Майк никогда не покидал Дерри и всё это время собирал информацию о жутком клоуне и ждал. Когда в городе начали происходить новые убийства, Майк просит старых друзей вновь собраться вместе и разобраться со злом города Дерри раз и навсегда.

    Возраст: 18+ (зрителям, достигшим 18 лет. запрещено для детей)
    Рейтинг MPAA: R (лицам до 17 лет обязательно присутствие взрослого)
    Дата мировой премьеры: 26 августа 2019
    Дата российской премьеры: 5 сентября 2019, Каро-Премьер
    Релиз от: OlLanDGroup
    Продолжительность: 02: 49: 25
    Качество видео: BDRip
    Перевод: Дублированный (Лицензия BD EUR)
    Субтитры: Русские (forced, 2 х full), Английские (SDH)
    Видео: AVC/H.264, 720x302, ~1039 kbps
    Аудио: AC3, 2 ch, 192 kbps - Русский (Лицензия BD EUR)
    General
    Unique ID : 140657408179058632131284029584204879920 (0x69D1A1A5798AF6DCF36878FFDD67D830)
    Complete name : D: OlLanDGroupIt.Chapter.Two.2019.BDRip(AVC).OlLanDGroup.mkv
    Format : Matroska
    Format version : Version 4
    File size : 1.46 GiB
    Duration : 2 h 49 min
    Overall bit rate : 1 233 kb/s
    Movie name : It.Chapter.Two.2019.BDRip(AVC).OlLanDGroup#Skandar#
    Encoded date : UTC 2019-12-27 12: 56: 24
    Writing application : mkvmerge v31.0.0 (\'Dolores In A Shoestand\') 64-bit
    Writing library : libebml v1.3.6 + libmatroska v1.4.9
    Video
    ID : 1
    Format : AVC
    Format/Info : Advanced Video Codec
    Format profile : High@L4.1
    Format settings : CABAC/10 Ref Frames
    Format settings, CABAC : Yes
    Format settings, ReFrames : 10 frames
    Codec ID : V_MPEG4/ISO/AVC
    Duration : 2 h 49 min
    Bit rate : 1 039 kb/s
    Width : 720 pixels
    Height : 302 pixels
    Display aspect ratio : 2.40: 1
    Frame rate mode : Constant
    Frame rate : 23.976 (24000/1001) FPS
    Color space : YUV
    Chroma subsampling : 4: 2: 0
    Bit depth : 8 bits
    Scan type : Progressive
    Bits/(Pixel*Frame) : 0.199
    Stream size : 1.23 GiB (84%)
    Title : It.Chapter.Two.2019.BDRip(AVC).OlLanDGroup#Skandar#
    Writing library : x264 core 146 r2538 121396c
    Encoding settings : cabac=1/ref=10/deblock=1: -3: -3/analyse=0x3: 0x133/me=umh/subme=11/psy=1/psy_rd=0.97: 0.05/mixed_ref=1/me_range=48/chroma_me=1/trellis=2/8x8dct=1/cqm=0/deadzone=21, 11/fast_pskip=0/chroma_qp_offset=-3/threads=6/lookahead_threads=1/sliced_threads=0/nr=0/decimate=0/interlaced=0/bluray_compat=0/constrained_intra=0/bframes=11/b_pyramid=2/b_adapt=2/b_bias=0/direct=3/weightb=1/open_gop=0/weightp=2/keyint=240/keyint_min=23/scenecut=40/intra_refresh=0/rc_lookahead=40/rc=2pass/mbtree=0/bitrate=1039/ratetol=1.0/qcomp=0.60/qpmin=0/qpmax=69/qpstep=4/cplxblur=20.0/qblur=0.5/vbv_maxrate=50000/vbv_bufsize=62500/nal_hrd=none/filler=0/ip_ratio=1.40/pb_ratio=1.30/aq=1: 1.00
    Language : English
    Default : Yes
    Forced : No
    Audio
    ID : 2
    Format : AC-3
    Format/Info : Audio Coding 3
    Commercial name : Dolby Digital
    Codec ID : A_AC3
    Duration : 2 h 49 min
    Bit rate mode : Constant
    Bit rate : 192 kb/s
    Channel(s) : 2 channels
    Channel layout : L R
    Sampling rate : 48.0 kHz
    Frame rate : 31.250 FPS (1536 SPF)
    Bit depth : 16 bits
    Compression mode : Lossy
    Stream size : 233 MiB (16%)
    Title : DUB | BD EUR
    Language : Russian
    Service kind : Complete Main
    Default : Yes
    Forced : No
    Text #1
    ID : 3
    Format : UTF-8
    Codec ID : S_TEXT/UTF8
    Codec ID/Info : UTF-8 Plain Text
    Duration : 2 h 48 min
    Bit rate : 1 b/s
    Count of elements : 68
    Stream size : 2.40 KiB (0%)
    Title : Forced
    Language : Russian
    Default : Yes
    Forced : Yes
    Text #2
    ID : 4
    Format : UTF-8
    Codec ID : S_TEXT/UTF8
    Codec ID/Info : UTF-8 Plain Text
    Duration : 2 h 48 min
    Bit rate : 76 b/s
    Count of elements : 2331
    Stream size : 94.7 KiB (0%)
    Title : Full
    Language : Russian
    Default : No
    Forced : No
    Text #3
    ID : 5
    Format : UTF-8
    Codec ID : S_TEXT/UTF8
    Codec ID/Info : UTF-8 Plain Text
    Duration : 2 h 44 min
    Bit rate : 72 b/s
    Count of elements : 1705
    Stream size : 87.9 KiB (0%)
    Title : Full FOCS
    Language : Russian
    Default : No
    Forced : No
    Text #4
    ID : 6
    Format : UTF-8
    Codec ID : S_TEXT/UTF8
    Codec ID/Info : UTF-8 Plain Text
    Duration : 2 h 44 min
    Bit rate : 60 b/s
    Count of elements : 2828
    Stream size : 72.8 KiB (0%)
    Title : SDH
    Language : English
    Default : No
    Forced : No
    Menu
    00: 00: 00.000 : en: Chapter 01
    00: 09: 10.341 : en: Chapter 02
    00: 19: 06.354 : en: Chapter 03
    00: 27: 00.744 : en: Chapter 04
    00: 37: 51.227 : en: Chapter 05
    00: 46: 19.986 : en: Chapter 06
    00: 55: 46.802 : en: Chapter 07
    01: 05: 36.474 : en: Chapter 08
    01: 17: 19.134 : en: Chapter 09
    01: 29: 21.565 : en: Chapter 10
    01: 41: 02.974 : en: Chapter 11
    01: 49: 11.336 : en: Chapter 12
    01: 59: 33.833 : en: Chapter 13
    02: 05: 31.774 : en: Chapter 14
    02: 14: 25.933 : en: Chapter 15
    02: 22: 43.889 : en: Chapter 16
    02: 32: 57.168 : en: Chapter 17
    02: 42: 15.643 : en: Chapter 18
    02: 44: 52.508 : en: Chapter 19

    Скриншоты для ознакомления




    Все одноименные релизы в Клубе
    Время раздачи: 24/7 (круглосуточно) (до появления первых 3-5 скачавших)

    Онлайн видео Оно 2



    Оно 2/It Chapter Two (2019) BDRip [H.264]
    Рейтинг →
     (голосов: 1, оценка 3/5, голосовать можно 1 раз )

    Другие торренты по теме:

  • Nodame Cantabile Paris Hen | Nodame Cantabile Paris Chapter | Нодамэ Кантабиле (второй сезон) [2008, TV, 11 эп.] BDRip 1080p Hi10P raw скачать через торрент бесплатно
  • Астрал 3 / Insidious: Chapter 3 (2015) BDRip [H.264 / 1080p] скачать через торрент бесплатно
  • Астрал 3 / Insidious: Chapter 3 (2015) BDRip [H.264 / 720p] скачать через торрент бесплатно
  • Астрал 3 / Insidious: Chapter 3 (2015) BDRip [H.264] [MP4|576p] скачать через торрент бесплатно
  • Астрал 3 / Insidious: Chapter 3 (2015) BDRip [H.264] скачать через торрент бесплатно
  • Астрал 3 / Insidious: Chapter 3 (2015) BDRip [H.264 / 1080p] скачать через торрент бесплатно
  • Астрал 3 / Insidious: Chapter 3 (2015) BDRip [H.264 / 720p] скачать через торрент бесплатно
  • Астрал 3 / Insidious: Chapter 3 (2015) BDRip [H.265 / 1080p-LQ]


    • Комментарии (0):

      Информация

      Информация

        Посетители, находящиеся в группе Гости, не могут оставлять комментарии в данной новости.

        ↓ Меню




        ↓ Опрос

        Вы добавили сайт в закладки?
        Да
        Нет


        Популярное