.
Авторизация | Регистрация
bitok.xyz
» » Оно 2 / It Chapter Two (2019) BDRip торрент скачать бесплатно


    Оно 2 / It Chapter Two (2019) BDRip торрент скачать бесплатно

    Дата: 28-12-2019, 05:00 | .torrent скачали: 0

    Оно 2 / It Chapter Two (2019) BDRipПроизводство: Канада, США/KatzSmith Productions, Lin Pictures, New Line Cinema
    Жанр: Ужасы, фэнтези, драма
    Режиссер: Андрес Мускетти
    Продюсер: Рой Ли, Дэн Лин, Richard Brenner

    Актеры
    Джессика Честейн, Джеймс МакЭвой, Билл Хэйдер, Айзая Мустафа, Джей Райан, Джеймс Рэнсон, Энди Бин, Билл Скарсгард, Джейден Мартелл, Уайатт Олефф, и др.

    Описание

    Проходит 27 лет после первой встречи ребят с демоническим Пеннивайзом. Они выросли, покинули родной городок и практически забыли о тех страшных событиях, но неожиданно в их взрослые проблемы вторгается телефонный звонок. Майк никогда не покидал Дерри и всё это время собирал информацию о жутком клоуне и ждал. Когда в городе начали происходить новые убийства, Майк просит старых друзей вновь собраться вместе и разобраться со злом города Дерри раз и навсегда.

    Возраст: 18+ (зрителям, достигшим 18 лет. запрещено для детей)
    Рейтинг MPAA: R (лицам до 17 лет обязательно присутствие взрослого)
    Дата мировой премьеры: 6 августа 2019
    Дата российской премьеры: 5 сентября 2019, Каро-Премьер
    Продолжительность: 02: 49: 25
    Качество видео: BDRip
    Перевод: Дублированный (Лицензия BD EUR)
    Субтитры: Русские форсированные (отдельно)
    Видео: Xvid, 720x304, ~1096 kbps
    Аудио: MP3, 2 ch, 128.00 kbpsОбщее
    Полное имя : D: It.Chapter.Two.2019.BDRip..avi
    Формат : AVI
    Формат/Информация : Audio Video Interleave
    Размер файла : 1, 46 Гбайт
    Продолжительность : 2 ч. 49 м.
    Общий поток : 1234 Кбит/сек
    Программа кодирования : VirtualDubMod 1.5.10.3 | (build 2550/release)
    Библиотека кодирования : VirtualDubMod build 2550/release
    Видео
    Идентификатор : 0
    Формат : MPEG-4 Visual
    Профиль формата : Advanced Simple@L5
    Параметр BVOP формата : 1
    Параметр QPel формата : Нет
    Параметр GMC формата : Без точки перехода
    Параметр матрицы формата : Выборочная
    Идентификатор кодека : XVID
    Идентификатор кодека/Подсказка : XviD
    Продолжительность : 2 ч. 49 м.
    Битрейт : 1097 Кбит/сек
    Ширина : 720 пикселей
    Высота : 304 пикселя
    Соотношение сторон : 2, 35: 1
    Частота кадров : 23, 976 кадра/сек
    Цветовое пространство : YUV
    Субдискретизация насыщенности : 4: 2: 0
    Битовая глубина : 8 бит
    Тип развёртки : Прогрессивная
    Метод сжатия : С потерями
    Бит/(Пиксели*Кадры) : 0.209
    Размер потока : 1, 30 Гбайт (89%)
    Библиотека кодирования : XviD 73
    Аудио
    Идентификатор : 1
    Формат : MPEG Audio
    Версия формата : Version 1
    Профиль формата : Layer 3
    Идентификатор кодека : 55
    Идентификатор кодека/Подсказка : MP3
    Продолжительность : 2 ч. 49 м.
    Вид битрейта : Постоянный
    Битрейт : 128 Кбит/сек
    Каналы : 2 канала
    Частота : 48, 0 КГц
    Метод сжатия : С потерями
    Размер потока : 155 Мбайт (10%)
    Выравнивание : Соединение по промежуткам
    Продолжительность промежутка : 42 мс. (1, 00 видеокадр)
    Время предзагрузки промежутка : 504 мс.
    Библиотека кодирования : LAME3.99r
    Настройки программы : -m s -V 4 -q 2 -lowpass 17 -b 128
    Скриншоты для ознакомления



    Все одноименные релизы в Клубе
    Время раздачи: с 08.00 до 24.00 (до появления первых 3-5 скачавших)

    Онлайн видео Оно 2



    Оно 2/It Chapter Two (2019) BDRip
    Рейтинг →
     (голосов: 1, оценка 5/5, голосовать можно 1 раз )

    Другие торренты по теме:

  • Nodame Cantabile Paris Hen | Nodame Cantabile Paris Chapter | Нодамэ Кантабиле (второй сезон) [2008, TV, 11 эп.] BDRip 1080p Hi10P raw скачать через торрент бесплатно
  • Астрал 3 / Insidious: Chapter 3 (2015) BDRip [H.264 / 1080p] скачать через торрент бесплатно
  • Астрал 3 / Insidious: Chapter 3 (2015) BDRip [H.264 / 720p] скачать через торрент бесплатно
  • Астрал 3 / Insidious: Chapter 3 (2015) BDRip [H.264] [MP4|576p] скачать через торрент бесплатно
  • Астрал 3 / Insidious: Chapter 3 (2015) BDRip [H.264] скачать через торрент бесплатно
  • Астрал 3 / Insidious: Chapter 3 (2015) BDRip [H.264 / 1080p] скачать через торрент бесплатно
  • Астрал 3 / Insidious: Chapter 3 (2015) BDRip [H.264 / 720p] скачать через торрент бесплатно
  • Астрал 3 / Insidious: Chapter 3 (2015) BDRip [H.265 / 1080p-LQ]


    • Комментарии (0):

      Информация

      Информация

        Посетители, находящиеся в группе Гости, не могут оставлять комментарии в данной новости.

        ↓ Меню




        ↓ Опрос

        Вы добавили сайт в закладки?
        Да
        Нет


        Популярное