.
Авторизация | Регистрация
bitok.xyz
» » Сын птицелова / Fagelfangarens Son / The Birdcatchers Son (2019) WEB-DLRip [VO] торрент скачать бесплатно


    Сын птицелова / Fagelfangarens Son / The Birdcatchers Son (2019) WEB-DLRip [VO] торрент скачать бесплатно

    Дата: 28-12-2019, 05:00 | .torrent скачали: 4

    Сын птицелова / Fagelfangarens Son / The Birdcatchers Son (2019) WEB-DLRip [VO]Производство: Швеция/GF Studios AB
    Жанр: Драма
    Режиссер: Ричард Хоберт

    Актеры
    Руди Кёхнке, Vígdis Eliesersdóttir Hentze Bjørck, Ливия Миллхаген, Хедда Ренберг, Mattias Djónason, Eidesgaard, Себастьен Куриво, Ёрген Лангхелле, Клаус Буе, Hans Tórgarð

    Описание

    Конец 19 века. На затерянных в море островах живет дружное семейство. Глава семьи, Эсмар, ловит птиц в прибрежных скалах, его жена Йоханна трудится по хозяйству и растит детей. Лишь одно омрачает жизнь этих людей. По закону, земля передается в аренду на 39 лет, когда в семье рождается наследник мужского пола. А у Йоханны появляются только девочки. Землевладелец уже предвкушает, как заберет нахаляву ферму с угодьями. Последний шанс избежать семейного краха, до конца года завести еще одного ребенка и молиться о том, чтобы это был мальчик.

    Дата мировой премьеры: 5 апреля 2019
    Продолжительность: 01: 47: 46
    Качество видео: WEB-DLRip
    Перевод: Одноголосый закадровый, любительский (porcellus)
    Субтитры: Отсутствуют
    Видео: XviD, 720x384, ~1743 Kbps
    Аудио: AC-3, 2 ch, 192 Kbps
    Общее
    Полное имя : D: NNMСын птицеловаThe.Birdcatchers.Son.2019.WEB-DLRip.avi
    Формат : AVI
    Формат/Информация : Audio Video Interleave
    Размер файла : 1, 47 Гбайт
    Продолжительность : 1 ч. 47 м.
    Общий поток : 1947 Кбит/сек
    Видео
    Идентификатор : 0
    Формат : MPEG-4 Visual
    Профиль формата : Advanced Simple@L5
    Настройки формата : BVOP1
    Параметр BVOP формата : 1
    Параметр QPel формата : Нет
    Параметр GMC формата : Без точки перехода
    Параметр матрицы формата : Default (MPEG)
    Идентификатор кодека : DX50
    Идентификатор кодека/Подсказка : DivX 5
    Продолжительность : 1 ч. 47 м.
    Битрейт : 1743 Кбит/сек
    Ширина : 720 пикселей
    Высота : 384 пикселя
    Соотношение сторон : 1, 85: 1
    Частота кадров : 24, 000 кадра/сек
    Цветовое пространство : YUV
    Субдискретизация насыщенности : 4: 2: 0
    Битовая глубина : 8 бит
    Тип развёртки : Прогрессивная
    Метод сжатия : С потерями
    Бит/(Пиксели*Кадры) : 0.263
    Размер потока : 1, 31 Гбайт (90%)
    Библиотека кодирования : XviD 1.2.1 (UTC 2008-12-04)
    Аудио
    Идентификатор : 1
    Формат : AC-3
    Формат/Информация : Audio Coding 3
    Коммерческое название : Dolby Digital
    Идентификатор кодека : 2000
    Продолжительность : 1 ч. 47 м.
    Вид битрейта : Постоянный
    Битрейт : 192 Кбит/сек
    Каналы : 2 канала
    ChannelLayout : L R
    Частота : 48, 0 КГц
    Частота кадров : 31, 250 кадров/сек (1536 SPF)
    Метод сжатия : С потерями
    Размер потока : 148 Мбайт (10%)
    Выравнивание : Соединение по промежуткам
    Продолжительность промежутка : 32 мс. (0, 77 видеокадр)
    ServiceKind/String : Complete Main

    Скриншоты для ознакомления



    Все одноименные релизы в Клубе Время раздачи: 24/7 (до появления первых 3-5 скачавших)

    Онлайн видео Сын птицелова



    Сын птицелова/Fagelfangarens Son/The Birdcatchers Son (2019) WEB-DLRip [VO]
    Рейтинг →
     (голосов: 1, оценка 4/5, голосовать можно 1 раз )

    Другие торренты по теме:

  • Светлана Шешунова | Пасха птицелова (2018) [MP3]


    • Комментарии (0):

      Информация

      Информация

        Посетители, находящиеся в группе Гости, не могут оставлять комментарии в данной новости.

        ↓ Меню




        ↓ Опрос

        Вы добавили сайт в закладки?
        Да
        Нет


        Популярное