.
Авторизация | Регистрация
bitok.xyz
» » Джокер / Joker (2019) BDRip торрент скачать бесплатно


    Джокер / Joker (2019) BDRip торрент скачать бесплатно

    Дата: 28-12-2019, 05:00 | .torrent скачали: 0

    Джокер / Joker (2019) BDRipПроизводство: США, Канада/BRON Studios, Creative Wealth Media Finance, DC Comics
    Жанр: Триллер, драма, криминал
    Режиссер: Тодд Филлипс

    Актеры
    Хоакин Феникс, Роберт Де Ниро, Зази Битц, Фрэнсис Конрой, Бретт Каллен, Шей Уигэм, Билл Кэмп, Гленн Флешлер, Ли Гилл, Джош Пэйс

    Описание

    Готэм, начало 1980-х годов. Комик Артур Флек живет с больной матерью, которая с детства учит его ходить с улыбкой. Пытаясь нести в мир хорошее и дарить людям радость, Артур сталкивается с человеческой жестокостью и постепенно приходит к выводу, что этот мир получит от него не добрую улыбку, а ухмылку злодея Джокера.

    Возраст: 18+ (зрителям, достигшим 18 лет. запрещено для детей)
    Рейтинг MPAA: R (лицам до 17 лет обязательно присутствие взрослого)
    Дата мировой премьеры: 31 августа 2019
    Дата российской премьеры: 3 октября 2019
    Продолжительность: 02: 01: 49
    Качество видео: BDRip
    Перевод: Дублированный (iTunes)
    Субтитры: Отсутствуют
    Видео: Xvid, 704x384, ~1319 kbps
    Аудио: AC3, 6 ch, 384.00 kbps
    Полное имя : D: Joker_2019_BDRip.avi
    Формат : AVI
    Формат/Информация : Audio Video Interleave
    Размер файла : 1, 46 Гбайт
    Продолжительность : 2 ч. 1 м.
    Общий поток : 1713 Кбит/сек
    Программа кодирования : VirtualDubMod 1.5.10.3 | (build 2550/release)
    Библиотека кодирования : VirtualDubMod build 2550/release
    Видео
    Идентификатор : 0
    Формат : MPEG-4 Visual
    Профиль формата : Advanced Simple@L5
    Настройки формата : BVOP1/Custom Matrix
    Параметр BVOP формата : 1
    Параметр QPel формата : Нет
    Параметр GMC формата : Без точки перехода
    Параметр матрицы формата : Выборочная
    Идентификатор кодека : XVID
    Идентификатор кодека/Подсказка : XviD
    Продолжительность : 2 ч. 1 м.
    Битрейт : 1320 Кбит/сек
    Ширина : 704 пикселя
    Высота : 384 пикселя
    Соотношение сторон : 1, 85: 1
    Частота кадров : 23, 976 (24000/1001) кадра/сек
    Цветовое пространство : YUV
    Субдискретизация насыщенности : 4: 2: 0
    Битовая глубина : 8 бит
    Тип развёртки : Прогрессивная
    Метод сжатия : С потерями
    Бит/(Пиксели*Кадры) : 0.204
    Размер потока : 1, 12 Гбайт (77%)
    Библиотека кодирования : XviD 67
    Аудио
    Идентификатор : 1
    Формат : AC-3
    Формат/Информация : Audio Coding 3
    Коммерческое название : Dolby Digital
    Идентификатор кодека : 2000
    Продолжительность : 2 ч. 1 м.
    Вид битрейта : Постоянный
    Битрейт : 384 Кбит/сек
    Каналы : 6 каналов
    ChannelLayout : L R C LFE Ls Rs
    Частота : 48, 0 КГц
    Частота кадров : 31, 250 кадров/сек (1536 SPF)
    Битовая глубина : 16 бит
    Метод сжатия : С потерями
    Размер потока : 335 Мбайт (22%)
    Выравнивание : Разделение по промежуткам
    Продолжительность промежутка : 42 мс. (1, 00 видеокадр)
    Время предзагрузки промежутка : 500 мс.
    ServiceKind/String : Complete Main

    Скриншоты для ознакомления



    Все одноименные релизы в Клубе
    Время раздачи: с 08.00 до 24.00 (до появления первых 3-5 скачавших)

    Онлайн видео Джокер



    Джокер/Joker (2019) BDRip
    Рейтинг →
     (голосов: 1, оценка 4/5, голосовать можно 1 раз )

    Другие торренты по теме:

  • Джокер / Joker (2019) TS [AD]
  • Джокер / Joker (2012) DVDRip
  • Джокер / Joker (2019) WEBRip [H.264 / 1080p-LQ] [AVO]
  • Джокер / Joker (2019) WEBRip [H.264 / 1080p] [EN / KOR Sub]
  • Джокер / Joker (2019) WEBRip [H.264 / 720p-LQ] [AVO]
  • Джокер / Joker (2019) WEBRip [H.264 / 1080p-LQ] [Line, AD]
  • Джокер / Joker (2019) WEBRip [H.264 / 720p-LQ] [MVO]
  • Джокер / Joker (2019) WEBRip [H.264 / 1080p] [PR]


    • Комментарии (0):

      Информация

      Информация

        Посетители, находящиеся в группе Гости, не могут оставлять комментарии в данной новости.

        ↓ Меню




        ↓ Опрос

        Вы добавили сайт в закладки?
        Да
        Нет


        Популярное