.
Авторизация | Регистрация
bitok.xyz
» » Zомбилэнд: Контрольный выстрел / Zombieland: Double Tap (2019) BDRip [H.264 / 720p-LQ] торрент скачать бесплатно


    Zомбилэнд: Контрольный выстрел / Zombieland: Double Tap (2019) BDRip [H.264 / 720p-LQ] торрент скачать бесплатно

    Дата: 28-12-2019, 05:00 | .torrent скачали: 0

    Zомбилэнд: Контрольный выстрел / Zombieland: Double Tap (2019) BDRip [H.264 / 720p-LQ]Производство: США/Columbia Pictures, Pariah
    Жанр: Ужасы, боевик, комедия
    Режиссер: Рубен Фляйшер

    Актеры
    Джесси Айзенберг, Вуди Харрельсон, Эмма Стоун, Эбигейл Бреслин, Зои Дойч, Розарио Доусон, Эван Джогиа, Билл Мюррей, Дэн Эйкройд, Люк Уилсон

    Описание

    Беспощадная и бесстрашная четверка охотников на зомби продолжает свое путешествие в глубь страны. На этот раз им предстоит сразиться не только с новыми видами живых мертвецов, но и вступить в схватку с другими выжившими, которые настроены совсем не дружелюбно. Кроме того, в собственных рядах охотников намечается серьезный разлад.

    Возраст: 18+ (зрителям, достигшим 18 лет. запрещено для детей)
    Рейтинг MPAA: R (лицам до 17 лет обязательно присутствие взрослого)
    Дата мировой премьеры: 9 октября 2019
    Дата премьеры в России: 24 октября 2019

    Релиз от: NNMClub
    Продолжительность: 01: 39: 01
    Качество видео: BDRip (batonchik )
    Перевод: Дублированный (iTunes)
    Субтитры: Русские (Full)
    Видео: AVC/H.264, 1280x536, ~3900 Kbps
    Аудио: AC3, 6 ch, 384 Kbps--Information 27.12.2019 18: 27: 21 Standard error stream
    ---Information 27.12.2019 18: 27: 29 y4m info: 1280x536p 1: 1 @ 24000/1001 fps (cfr)
    ---Information 27.12.2019 18: 27: 29 x264 info: using SAR=1/1
    ---Information 27.12.2019 18: 27: 29 x264 info: using cpu capabilities: MMX2 SSE2Fast SSSE3 SSE4.2 AVX
    ---Information 27.12.2019 18: 27: 29 x264 info: profile High, level 4.1, 4: 2: 0, 8-bit
    ---Information 27.12.2019 22: 09: 48 x264 info: frame I: 1578 Avg QP: 17.48 size: 123062
    ---Information 27.12.2019 22: 09: 48 x264 info: frame P: 36174 Avg QP: 19.40 size: 44537
    ---Information 27.12.2019 22: 09: 48 x264 info: frame B: 104712 Avg QP: 22.60 size: 10415

    ---Information 27.12.2019 22: 09: 48 x264 info: consecutive B-frames: 3.9% 5.5% 9.2% 33.5% 18.4% 22.6% 3.4% 2.8% 0.5%
    General
    Complete name : Zомбилэнд-Контрольный выстрел_Zombieland-Double Tap (2019) BDRip.H.264.720p.LQ.NNMClub.mkv
    Format : Matroska
    Format version : Version 4
    File size : 2.96 GiB
    Duration : 1 h 39 min
    Overall bit rate : 4 285 kb/s
    Movie name : /Zомбилэнд-Контрольный выстрел_Zombieland-Double Tap (2019) BDRip.H.264.720p.LQ.NNMClub
    Encoded date : UTC 2019-12-27 19: 26: 55
    Writing application : mkvmerge v40.0.0 (\'Old Town Road + Pony\') 64-bit
    Writing library : libebml v1.3.9 + libmatroska v1.5.2
    Video
    ID : 1
    Format : AVC
    Format/Info : Advanced Video Codec
    Format profile : High@L4.1
    Format settings : CABAC/12 Ref Frames
    Format settings, CABAC : Yes
    Format settings, Reference frames : 12 frames
    Codec ID : V_MPEG4/ISO/AVC
    Duration : 1 h 39 min
    Bit rate : 3 899 kb/s
    Width : 1 280 pixels
    Height : 536 pixels
    Display aspect ratio : 2.40: 1
    Frame rate mode : Constant
    Frame rate : 23.976 (24000/1001) FPS
    Color space : YUV
    Chroma subsampling : 4: 2: 0
    Bit depth : 8 bits
    Scan type : Progressive
    Bits/(Pixel*Frame) : 0.237
    Stream size : 2.70 GiB (91%)
    Title : /Zомбилэнд-Контрольный выстрел_Zombieland-Double Tap (2019) BDRip.H.264.720p.LQ.NNMClub
    Writing library : x264 core 158 r2984 3759fcb
    Encoding settings : cabac=1/ref=12/deblock=1: -3: -3/analyse=0x3: 0x133/me=umh/subme=10/psy=1/psy_rd=1.00: 0.25/mixed_ref=1/me_range=24/chroma_me=1/trellis=2/8x8dct=1/cqm=0/deadzone=6, 6/fast_pskip=0/chroma_qp_offset=-4/threads=12/lookahead_threads=2/sliced_threads=0/nr=0/decimate=0/interlaced=0/bluray_compat=0/constrained_intra=0/bframes=8/b_pyramid=2/b_adapt=2/b_bias=0/direct=1/weightb=1/open_gop=0/weightp=2/keyint=240/keyint_min=23/scenecut=40/intra_refresh=0/rc_lookahead=40/rc=2pass/mbtree=1/bitrate=3899/ratetol=1.0/qcomp=0.60/qpmin=0/qpmax=69/qpstep=4/cplxblur=20.0/qblur=0.5/vbv_maxrate=50000/vbv_bufsize=62500/nal_hrd=none/filler=0/ip_ratio=1.10/aq=3: 0.70
    Language : English
    Default : Yes
    Forced : No
    Color range : Limited
    Color primaries : BT.709
    Transfer characteristics : BT.709
    Matrix coefficients : BT.709
    Audio
    ID : 2
    Format : AC-3
    Format/Info : Audio Coding 3
    Commercial name : Dolby Digital
    Codec ID : A_AC3
    Duration : 1 h 39 min
    Bit rate mode : Constant
    Bit rate : 384 kb/s
    Channel(s) : 6 channels
    Channel layout : L R C LFE Ls Rs
    Sampling rate : 48.0 kHz
    Frame rate : 31.250 FPS (1536 SPF)
    Compression mode : Lossy
    Stream size : 272 MiB (9%)
    Title : Дублированный (iTunes)
    Language : Russian
    Service kind : Complete Main
    Default : Yes
    Forced : No
    Text #1
    ID : 3
    Format : UTF-8
    Codec ID : S_TEXT/UTF8
    Codec ID/Info : UTF-8 Plain Text
    Duration : 1 h 37 min
    Bit rate : 1 b/s
    Count of elements : 35
    Stream size : 1.42 KiB (0%)
    Title : Форс.
    Language : Russian
    Default : Yes
    Forced : No
    Text #2
    ID : 4
    Format : UTF-8
    Codec ID : S_TEXT/UTF8
    Codec ID/Info : UTF-8 Plain Text
    Duration : 1 h 38 min
    Bit rate : 106 b/s
    Count of elements : 1736
    Stream size : 76.7 KiB (0%)
    Title : Полные
    Language : Russian
    Default : No
    Forced : No
    Menu
    00: 00: 00.007 : en: Глава 01
    00: 05: 00.682 : en: Глава 02
    00: 11: 08.008 : en: Глава 03
    00: 15: 24.514 : en: Глава 04
    00: 21: 16.199 : en: Глава 05
    00: 29: 15.552 : en: Глава 06
    00: 36: 55.429 : en: Глава 07
    00: 44: 03.022 : en: Глава 08
    00: 50: 12.975 : en: Глава 09
    00: 57: 52.518 : en: Глава 10
    01: 03: 51.877 : en: Глава 11
    01: 06: 50.055 : en: Глава 12
    01: 10: 12.132 : en: Глава 13
    01: 15: 40.126 : en: Глава 14
    01: 23: 45.319 : en: Глава 15
    01: 29: 48.223 : en: Глава 16

    Скриншоты для ознакомления



    Все одноименные релизы в Клубе Время раздачи: 24/7 (до появления первых 3-5 скачавших)

    Онлайн видео Zомбилэнд: Контрольный выстрел



    Zомбилэнд: Контрольный выстрел/Zombieland: Double Tap (2019) BDRip [H.264/720p-LQ]
    Рейтинг →
     (голосов: 1, оценка 5/5, голосовать можно 1 раз )

    Другие торренты по теме:

  • Zомбилэнд: Контрольный выстрел / Zombieland: Double Tap (2019) CAMRip [H.264 / 720p-LQ] [MVO] [AD]
  • Zомбилэнд: Контрольный выстрел / Zombieland: Double Tap (2019) WEBRip [H.264 / 1080p-LQ] [ENG / Kor, Ru, Ukr Sub]
  • Zомбилэнд: Контрольный выстрел / Zombieland: Double Tap (2019) WEBRip [ENG / Kor, Ru Sub]
  • Zомбилэнд: Контрольный выстрел / Zombieland: Double Tap (2019) WEBRip [H.264]
  • Zомбилэнд: Контрольный выстрел / Zombieland: Double Tap (2019) HDRip
  • Zомбилэнд: Контрольный выстрел / Zombieland: Double Tap (2019) BDRip [H.264 / 720p] [PR]
  • Zомбилэнд: Контрольный выстрел / Zombieland: Double Tap (2019) BDRip [H.264 / 1080p] [PR]
  • Zомбилэнд: Контрольный выстрел / Zombieland: Double Tap (2019) BDRip [H.264]


    • Комментарии (0):

      Информация

      Информация

        Посетители, находящиеся в группе Гости, не могут оставлять комментарии в данной новости.

        ↓ Меню




        ↓ Опрос

        Вы добавили сайт в закладки?
        Да
        Нет


        Популярное