.
Авторизация | Регистрация
bitok.xyz
» » Того / Togo (2019) WEB-DL [H.264 / 720p-LQ] [MVO] торрент скачать бесплатно


    Того / Togo (2019) WEB-DL [H.264 / 720p-LQ] [MVO] торрент скачать бесплатно

    Дата: 28-12-2019, 05:00 | .torrent скачали: 2

    Того / Togo (2019) WEB-DL [H.264 / 720p-LQ] [MVO]Производство: США/The Walt Disney Company, Walt Disney Pictures
    Жанр: Драма
    Режиссер: Эриксон Кор

    Актеры
    Уиллем Дефо, Джулианна Николсон, Кристофер Хейердал, Ричард Дормер, Эдриан Дорваль, Madeline Wickins, Майкл Грейес, Нив Нилсен, Николай Николаефф, Торбьорн Харр

    Описание

    Пёс Того в 1925 году помог предотвратить эпидемию дифтерии в городе Ном, Аляска. В упряжке с другими ездовыми собаками Того, несмотря на страшные погодные условия, смог доставить в город посылку с антитоксином, остановившим распространение болезни. Основано на реальных событиях.

    Рейтинг MPAA: PG (рекомендуется присутствие родителей)
    Дата мировой премьеры: 20 декабря 2019
    Продолжительность: 01: 53: 01
    Качество видео: WEB-DL 720p
    Перевод: Многоголосый профессиональный(HDRezka Studio)
    Субтитры: Русский (Форс.), Английский (Full, SDH)
    Видео: AVC/H.264, 1280x720, ~4233 Кbps, 23, 976 fps
    Аудио 1: AC3, 6 ch, 448 Kbps - Русский
    Аудио 2: E-AC3+Atmos, 6 ch, 768 Kbps - Английский
    Общее
    Уникальный идентификатор : 59788564366693481065986029798763525962 (0x2CFADBD0217BA306A5CB1B2B0543F74A)
    Полное имя : Togo.2019.WEB-DL.720p.mkv
    Формат : Matroska
    Версия формата : Version 4
    Размер файла : 4, 30 Гбайт
    Продолжительность : 1 ч. 53 м.
    Режим общего битрейта : Переменный
    Общий поток : 5452 Кбит/сек
    Дата кодирования : UTC 2019-12-27 09: 20: 54
    Программа кодирования : mkvmerge v23.0.0 (\'The Bride Said No\') 64-bit
    Библиотека кодирования : libebml v1.3.6 + libmatroska v1.4.9
    Видео
    Идентификатор : 1
    Формат : AVC
    Формат/Информация : Advanced Video Codec
    Профиль формата : High@L3.1
    Настройки формата : CABAC/4 Ref Frames
    Параметр CABAC формата : Да
    Параметр RefFrames формата : 4 кадра
    Идентификатор кодека : V_MPEG4/ISO/AVC
    Продолжительность : 1 ч. 53 м.
    Вид битрейта : Переменный
    Битрейт : 4233 Кбит/сек
    Максимальный битрейт : 6375 Кбит/сек
    Ширина : 1280 пикселей
    Высота : 720 пикселей
    Соотношение сторон : 16: 9
    Режим частоты кадров : Постоянный
    Частота кадров : 23, 976 (24000/1001) кадра/сек
    Цветовое пространство : YUV
    Субдискретизация насыщенности : 4: 2: 0
    Битовая глубина : 8 бит
    Тип развёртки : Прогрессивная
    Бит/(Пиксели*Кадры) : 0.192
    Размер потока : 3, 34 Гбайт (78%)
    Язык : English
    Default : Да
    Forced : Нет
    Цветовой диапазон : Limited
    Основные цвета : BT.709
    Характеристики трансфера : BT.709
    Коэффициенты матрицы : BT.709
    Аудио #1
    Идентификатор : 2
    Формат : AC-3
    Формат/Информация : Audio Coding 3
    Коммерческое название : Dolby Digital
    Идентификатор кодека : A_AC3
    Продолжительность : 1 ч. 53 м.
    Вид битрейта : Постоянный
    Битрейт : 448 Кбит/сек
    Каналы : 6 каналов
    ChannelLayout : L R C LFE Ls Rs
    Частота : 48, 0 КГц
    Частота кадров : 31, 250 кадров/сек (1536 SPF)
    Метод сжатия : С потерями
    Размер потока : 362 Мбайт (8%)
    Заголовок : MVO (HDRezka Studio)
    Язык : Russian
    ServiceKind/String : Complete Main
    Default : Да
    Forced : Нет
    Аудио #2
    Идентификатор : 3
    Формат : E-AC-3 JOC
    Формат/Информация : Enhanced AC-3 with Joint Object Coding
    Коммерческое название : Dolby Digital Plus with Dolby Atmos
    Идентификатор кодека : A_EAC3
    Продолжительность : 1 ч. 53 м.
    Вид битрейта : Постоянный
    Битрейт : 768 Кбит/сек
    Каналы : 6 каналов
    ChannelLayout : L R C LFE Ls Rs
    Частота : 48, 0 КГц
    Частота кадров : 31, 250 кадров/сек (1536 SPF)
    Метод сжатия : С потерями
    Размер потока : 621 Мбайт (14%)
    Язык : English
    ServiceKind/String : Complete Main
    Default : Нет
    Forced : Нет
    ComplexityIndex : 16
    NumberOfDynamicObjects : 15
    BedChannelCount/String : 1 канал
    BedChannelConfiguration : LFE
    Текст #1
    Идентификатор : 4
    Формат : UTF-8
    Идентификатор кодека : S_TEXT/UTF8
    Идентификатор кодека/Информация : UTF-8 Plain Text
    Продолжительность : 1 ч. 43 м.
    Битрейт : 1 бит/сек
    ElementCount : 16
    Размер потока : 1, 06 Кбайт (0%)
    Заголовок : Forced
    Язык : Russian
    Default : Да
    Forced : Нет
    Текст #2
    Идентификатор : 5
    Формат : UTF-8
    Идентификатор кодека : S_TEXT/UTF8
    Идентификатор кодека/Информация : UTF-8 Plain Text
    Продолжительность : 1 ч. 41 м.
    Битрейт : 34 бит/сек
    ElementCount : 881
    Размер потока : 25, 3 Кбайт (0%)
    Заголовок : English
    Язык : English
    Default : Нет
    Forced : Нет
    Текст #3
    Идентификатор : 6
    Формат : UTF-8
    Идентификатор кодека : S_TEXT/UTF8
    Идентификатор кодека/Информация : UTF-8 Plain Text
    Продолжительность : 1 ч. 42 м.
    Битрейт : 37 бит/сек
    ElementCount : 1051
    Размер потока : 28, 3 Кбайт (0%)
    Заголовок : English SDH
    Язык : English
    Default : Нет
    Forced : Нет

    Скриншоты для ознакомления



    Все одноименные релизы в Клубе
    Время раздачи: 24/7 (до появления первых 3-5 скачавших)

    Того/Togo (2019) WEB-DL [H.264/720p-LQ] [MVO]
    Рейтинг →
     (голосов: 1, оценка 5/5, голосовать можно 1 раз )

    Другие торренты по теме:

  • Того / Togo (2019) WEB-DLRip [MVO] [AD]
  • Того / Togo (2019) WEB-DLRip [H.264 / 1080p-LQ] [MVO] [AD]
  • Того / Togo (2019) WEBRip [H.264 / 1080p-LQ] [DVO]
  • Того / Togo (2019) WEB-DL [H.264 / 720p-LQ] [DVO]
  • Того / Togo (2019) WEBRip
  • Того / Togo (2019) WEBRip [H.264] [DVO] [PR]
  • Того / Togo (2019) WEBRip [DVO]
  • Того / Togo (2019) WEB-DLRip [H.264] (MVO)


    • Комментарии (0):

      Информация

      Информация

        Посетители, находящиеся в группе Гости, не могут оставлять комментарии в данной новости.

        ↓ Меню




        ↓ Опрос

        Вы добавили сайт в закладки?
        Да
        Нет


        Популярное