.
Авторизация | Регистрация
bitok.xyz
» » Китайский лётчик / Zhong guo ji zhang (2019) WEBRip [H.264 / 720p-LQ] [MVO] [AD] торрент скачать бесплатно


    Китайский лётчик / Zhong guo ji zhang (2019) WEBRip [H.264 / 720p-LQ] [MVO] [AD] торрент скачать бесплатно

    Дата: 28-12-2019, 05:00 | .torrent скачали: 2

    Китайский лётчик / Zhong guo ji zhang (2019) WEBRip [H.264 / 720p-LQ] [MVO] [AD]Производство: Китай/Bona Film Group, Alibaba Pictures, Huaxia Film Distribution
    Жанр: Биография, боевик, триллер
    Режиссер: Эндрю Лау

    Актеры
    Чжан Ханьюй, Охо Оу, Ду Цзян, Юань Цуань, Чжан Тяньай, Ли Цинь, Чжан Ямэй, Ян Цижу, Гао Гэ, Хуан Чжичжун

    Описание

    14 мая 2018 года на внутреннем рейсе компании Сычуаньские авиалинии на высоте чуть меньше 10 километров пассажирский самолёт теряет одно из ветровых стёкол. Происходит разгерметизация кабины, одного из пилотов чуть не утягивает наружу, сквозняк и шум стоят такие, что пилоты не слышат по радио голоса диспетчеров. И вдобавок из-за сильных вибраций самолёта показания приборов разглядеть невозможно. Капитану придётся совершить подвиг.

    Дата мировой премьеры: 30 сентября 2019
    Продолжительность: 01: 49: 28
    Качество видео: WEBRip
    Перевод: Многоголосый закадровый, любительский (КОЛОБОК)
    Субтитры: Китайские, английские (хардсаб)
    Реклама: Присутствует баннер.
    Видео: AVC/H.264, 1280x536, ~4695 Kbps
    Аудио: AC-3, 2 ch, 384 Kbps
    Общее
    Полное имя : D: NNMКитайский лётчикThe.Captain.2019.WEBRip.720p-LQ.mkv
    Формат : Matroska
    Версия формата : Version 2
    Размер файла : 3, 96 Гбайт
    Продолжительность : 1 ч. 49 м.
    Режим общего битрейта : Переменный
    Общий поток : 5182 Кбит/сек
    Программа кодирования : libmatroska 1.4.1
    Библиотека кодирования : SolveigMM Matroska Muxer Version 1.0.1502.31
    Видео
    Идентификатор : 1
    Формат : AVC
    Формат/Информация : Advanced Video Codec
    Профиль формата : High@L4.1
    Настройки формата : CABAC/4 Ref Frames
    Параметр CABAC формата : Да
    Параметр RefFrames формата : 4 кадра
    Идентификатор кодека : V_MPEG4/ISO/AVC
    Продолжительность : 1 ч. 49 м.
    Вид битрейта : Переменный
    Битрейт : 4695 Кбит/сек
    Номинальный битрейт : 5000 Кбит/сек
    Максимальный битрейт : 5000 Кбит/сек
    Ширина : 1280 пикселей
    Высота : 536 пикселей
    Соотношение сторон : 2, 40: 1
    Режим частоты кадров : Постоянный
    Частота кадров : 23, 976 (24000/1001) кадра/сек
    Стандарт вещания : Component
    Цветовое пространство : YUV
    Субдискретизация насыщенности : 4: 2: 0
    Битовая глубина : 8 бит
    Тип развёртки : Прогрессивная
    Бит/(Пиксели*Кадры) : 0.285
    Размер потока : 3, 59 Гбайт (91%)
    Default : Нет
    Forced : Нет
    Цветовой диапазон : Limited
    Основные цвета : BT.709
    Характеристики трансфера : BT.709
    Коэффициенты матрицы : BT.709
    Аудио
    Идентификатор : 2
    Формат : AC-3
    Формат/Информация : Audio Coding 3
    Коммерческое название : Dolby Digital
    Идентификатор кодека : A_AC3
    Продолжительность : 1 ч. 49 м.
    Вид битрейта : Постоянный
    Битрейт : 384 Кбит/сек
    Каналы : 2 канала
    ChannelLayout : L R
    Частота : 48, 0 КГц
    Частота кадров : 31, 250 кадров/сек (1536 SPF)
    Метод сжатия : С потерями
    Размер потока : 301 Мбайт (7%)
    Язык : Russian
    ServiceKind/String : Complete Main
    Default : Нет
    Forced : Нет

    Скриншоты для ознакомления



    Все одноименные релизы в Клубе Время раздачи: 24/7 (до появления первых 3-5 скачавших)

    Онлайн видео Китайский лётчик



    Китайский лётчик/Zhong guo ji zhang (2019) WEBRip [H.264/720p-LQ] [MVO] [AD]
    Рейтинг →
     (голосов: 1, оценка 3/5, голосовать можно 1 раз )

    Другие торренты по теме:

  • Китайский лётчик / Zhong guo ji zhang (2019) WEBRip [MVO] [AD]


    • Комментарии (0):

      Информация

      Информация

        Посетители, находящиеся в группе Гости, не могут оставлять комментарии в данной новости.

        ↓ Меню




        ↓ Опрос

        Вы добавили сайт в закладки?
        Да
        Нет


        Популярное