.
Авторизация | Регистрация
bitok.xyz
» » Окей, Лекси! / Jexi (2019) WEB-DLRip торрент скачать бесплатно


    Окей, Лекси! / Jexi (2019) WEB-DLRip торрент скачать бесплатно

    Дата: 28-12-2019, 05:00 | .torrent скачали: 0

    Окей, Лекси! / Jexi (2019) WEB-DLRipПроизводство: США, CBS Films, Entertainment One
    Жанр: Комедия
    Режиссер: Джон Лукас, Скотт Мур
    Продюсер: Сюзанн Тодд, Марк Камине

    Актеры
    Адам Дивайн, Александра Шипп, Роуз Бирн, Рон Фанчес, Шарлин Йи, Майкл Пенья, Ванда Сайкс, Скотт Мескади, Джастин Хартли, Гэвин Рут

    Описание

    Лекси знает о вас все. Она видела все ваши неприличные фотки, знает, о чем вы шепчетесь во время секса, что едите по ночам и как называете своего начальника в секретных чатах. Она — виртуальный помощник из вашего мобильника, и сегодня у нее очень плохое настроение.

    Возраст: 18+ (зрителям, достигшим 18 лет. запрещено для детей)
    Рейтинг MPAA: R (лицам до 17 лет обязательно присутствие взрослого)
    Дата мировой премьеры: 10 октября 2019
    Дата российской премьеры: 17 октября 2019, Capella Film
    Продолжительность: 01: 23: 51
    Качество видео: WEB-DLRip
    Перевод: Дублированный (с онлайн кинотеатра)
    Оригинальная аудиодорожка: английский
    Субтитры: Отсутствуют
    Видео: Xvid, 720x304, ~2076 kbps
    Аудио: 1 AC3, 2 ch, 192.00 kbps | RUS
    Аудио: 2 AC3, 2 ch, 192.00 kbps | ENG
    Формат : AVI
    Формат/Информация : Audio Video Interleave
    Размер файла : 1, 46 Гбайт
    Продолжительность : 1 ч. 24 м.
    Общий поток : 2475 Кбит/сек
    Название фильма : Окей, Лекси!_2019_WEB-DLRip
    Программа кодирования : VirtualDubMod 1.5.10.3 | (build 2550/release)
    Видео
    Идентификатор : 0
    Формат : MPEG-4 Visual
    Профиль формата : Advanced Simple@L5
    Настройки формата : BVOP1/Custom Matrix
    Параметр BVOP формата : 1
    Параметр QPel формата : Нет
    Параметр GMC формата : Без точки перехода
    Параметр матрицы формата : Выборочная
    Идентификатор кодека : XVID
    Идентификатор кодека/Подсказка : XviD
    Продолжительность : 1 ч. 24 м.
    Битрейт : 2077 Кбит/сек
    Ширина : 720 пикселей
    Высота : 304 пикселя
    Соотношение сторон : 2, 35: 1
    Частота кадров : 23, 976 (24000/1001) кадра/сек
    Цветовое пространство : YUV
    Субдискретизация насыщенности : 4: 2: 0
    Битовая глубина : 8 бит
    Тип развёртки : Прогрессивная
    Метод сжатия : С потерями
    Бит/(Пиксели*Кадры) : 0.396
    Размер потока : 1, 22 Гбайт (84%)
    Библиотека кодирования : XviD 73
    Аудио #1
    Идентификатор : 1
    Формат : AC-3
    Формат/Информация : Audio Coding 3
    Коммерческое название : Dolby Digital
    Идентификатор кодека : 2000
    Продолжительность : 1 ч. 24 м.
    Вид битрейта : Постоянный
    Битрейт : 192 Кбит/сек
    Каналы : 2 канала
    ChannelLayout : L R
    Частота : 48, 0 КГц
    Частота кадров : 31, 250 кадров/сек (1536 SPF)
    Метод сжатия : С потерями
    Размер потока : 116 Мбайт (8%)
    Выравнивание : Разделение по промежуткам
    Продолжительность промежутка : 42 мс. (1, 00 видеокадр)
    Время предзагрузки промежутка : 500 мс.
    Заголовок : rus
    ServiceKind/String : Complete Main
    Аудио #2
    Идентификатор : 2
    Формат : AC-3
    Формат/Информация : Audio Coding 3
    Коммерческое название : Dolby Digital
    Идентификатор кодека : 2000
    Продолжительность : 1 ч. 24 м.
    Вид битрейта : Постоянный
    Битрейт : 192 Кбит/сек
    Каналы : 2 канала
    ChannelLayout : L R
    Частота : 48, 0 КГц
    Частота кадров : 31, 250 кадров/сек (1536 SPF)
    Метод сжатия : С потерями
    Размер потока : 116 Мбайт (8%)
    Выравнивание : Разделение по промежуткам
    Продолжительность промежутка : 42 мс. (1, 00 видеокадр)
    Время предзагрузки промежутка : 500 мс.
    Заголовок : eng
    ServiceKind/String : Complete Main

    Скриншоты для ознакомления



    Все одноименные релизы в Клубе
    Время раздачи: с 08.00 до 24.00 (до появления первых 3-5 скачавших)

    Онлайн видео Окей, Лекси!



    Окей, Лекси!/Jexi (2019) WEB-DLRip
    Рейтинг →
     (голосов: 1, оценка 5/5, голосовать можно 1 раз )

    Другие торренты по теме:

  • Окей, Лекси! / Jexi (2019) BDRip [1080p] ATV
  • Окей, Лекси! / Jexi (2019) CAMRip [H.264 / 720p-LQ] [MVO] [AD]
  • Окей, Лекси! / Jexi (2019) WEB-DL [H.264 / 1080p] [Online]
  • Окей, Лекси! / Jexi (2019) WEB-DL [H.264 / 720p-LQ]
  • Окей, Лекси! / Jexi (2019) WEB-DL [H.264 / 1080p]
  • Окей, Лекси! / Jexi (2019) WEB-DLRip [H.264]
  • Окей, Лекси! / Jexi (2019) WEB-DLRip
  • Окей, Лекси! / Jexi (2019) BDRip [H.264 / 1080p] [PR]


    • Комментарии (0):

      Информация

      Информация

        Посетители, находящиеся в группе Гости, не могут оставлять комментарии в данной новости.

        ↓ Меню




        ↓ Опрос

        Вы добавили сайт в закладки?
        Да
        Нет


        Популярное