.
Авторизация | Регистрация
bitok.xyz
» » Джокер / Joker (2019) BDRip [H.264 / 1080p-LQ] торрент скачать бесплатно


    Джокер / Joker (2019) BDRip [H.264 / 1080p-LQ] торрент скачать бесплатно

    Дата: 28-12-2019, 05:00 | .torrent скачали: 1

    Джокер / Joker (2019) BDRip [H.264 / 1080p-LQ]Производство: Канада, США/Warner Bros., Village Roadshow Pictures, ...
    Жанр: Триллер, драма, криминал
    Режиссер: Тодд Филлипс

    Актеры
    Хоакин Феникс, Роберт Де Ниро, Зази Битц, Джоли Чань, Марк Мэрон, Фрэнсис Конрой, Мэри Кейт Малат, Ши Уигхэм, Брайан Коллен, Бретт Каллен, Билл Кэмп, Гленн Флешлер, Ли Гилл, Джош Пэйс

    Описание

    Готэм, начало 1980-х годов. Комик Артур Флек живет с больной матерью, которая с детства учит его ходить с улыбкой. Пытаясь нести в мир хорошее и дарить людям радость, Артур сталкивается с человеческой жестокостью и постепенно приходит к выводу, что этот мир получит от него не добрую улыбку, а ухмылку злодея Джокера.

    Возраст: 18+ (зрителям, достигшим 18 лет. запрещено для детей)
    Рейтинг MPAA: R (лицам до 17 лет обязательно присутствие взрослого)
    Дата мировой премьеры: 31 августа 2019
    Дата российской премьеры: 3 октября 2019
    Релиз от: NNNMClub
    Продолжительность: 02: 01: 49
    Качество видео: BDRip (batonchik )
    Перевод: Дублированный (iTunes), Авторский одноголосый, профессиональный многоголосый
    Субтитры: Русские (Форс., полные) Английские
    Видео: AVC/H.264, 1920x1036, ~ 5500 Kbps, 23.976 fps
    Аудио 1: AC3, 6 ch, 384 Kbps (Русский, DUB)
    Аудио 2: AC3, 6 ch, 448 Kbps (Русский, AVO, Михаил Чадов, без цензуры)
    Аудио 3: AC3, 2 ch, 192 Kbps (Русский, MVO-HDRezka Studio)
    Аудио 4: AC3, 6 ch, 640 Kbps (Английский)--Information 22.12.2019 23: 22: 51 Standard error stream
    ---Information 22.12.2019 23: 23: 01 y4m info: 1920x1036p 1: 1 @ 24000/1001 fps (cfr)
    ---Information 22.12.2019 23: 23: 01 x264 info: using SAR=1/1
    ---Information 22.12.2019 23: 23: 01 x264 info: using cpu capabilities: MMX2 SSE2Fast SSSE3 SSE4.2 AVX
    ---Information 22.12.2019 23: 23: 01 x264 info: profile High, level 4.1, 4: 2: 0, 8-bit
    ---Information 23.12.2019 8: 18: 53 x264 info: frame I: 1014 Avg QP: 18.96 size: 140341
    ---Information 23.12.2019 8: 18: 53 x264 info: frame P: 36621 Avg QP: 21.00 size: 56078
    ---Information 23.12.2019 8: 18: 53 x264 info: frame B: 137608 Avg QP: 21.97 size: 20541

    ---Information 23.12.2019 8: 18: 53 x264 info: consecutive B-frames: 2.2% 2.5% 8.8% 7.4% 13.7% 56.6% 4.9% 1.0% 1.1% 1.8%
    General
    Complete name : Джокер_Joker (2019) BDRip, H.264, 1080p.LQ.Dub.NNMClub.mkv
    Format : Matroska
    Format version : Version 4
    File size : 6.10 GiB
    Duration : 2 h 1 min
    Overall bit rate : 7 164 kb/s
    Movie name : Джокер_Joker (2019) BDRip, H.264, 1080p.LQ.NNMClub
    Encoded date : UTC 2019-12-27 08: 51: 36
    Writing application : mkvmerge v40.0.0 (\'Old Town Road + Pony\') 64-bit
    Writing library : libebml v1.3.9 + libmatroska v1.5.2
    Video
    ID : 1
    Format : AVC
    Format/Info : Advanced Video Codec
    Format profile : High@L4.1
    Format settings : CABAC/4 Ref Frames
    Format settings, CABAC : Yes
    Format settings, Reference frames : 4 frames
    Codec ID : V_MPEG4/ISO/AVC
    Duration : 2 h 1 min
    Bit rate : 5 500 kb/s
    Width : 1 920 pixels
    Height : 1 036 pixels
    Display aspect ratio : 1.85: 1
    Frame rate mode : Constant
    Frame rate : 23.976 (24000/1001) FPS
    Color space : YUV
    Chroma subsampling : 4: 2: 0
    Bit depth : 8 bits
    Scan type : Progressive
    Bits/(Pixel*Frame) : 0.115
    Stream size : 4.68 GiB (77%)
    Title : Джокер_Joker (2019) BDRip, H.264, 1080p.LQ.NNMClub
    Writing library : x264 core 158 r2984 3759fcb
    Encoding settings : cabac=1/ref=4/deblock=1: -3: -3/analyse=0x3: 0x133/me=umh/subme=11/psy=1/psy_rd=1.00: 0.25/mixed_ref=1/me_range=32/chroma_me=1/trellis=2/8x8dct=1/cqm=0/deadzone=6, 6/fast_pskip=0/chroma_qp_offset=-4/threads=12/lookahead_threads=2/sliced_threads=0/nr=0/decimate=0/interlaced=0/bluray_compat=0/constrained_intra=0/bframes=9/b_pyramid=2/b_adapt=2/b_bias=0/direct=1/weightb=1/open_gop=0/weightp=2/keyint=240/keyint_min=23/scenecut=40/intra_refresh=0/rc_lookahead=40/rc=2pass/mbtree=1/bitrate=5500/ratetol=1.0/qcomp=0.60/qpmin=0/qpmax=69/qpstep=4/cplxblur=20.0/qblur=0.5/vbv_maxrate=50000/vbv_bufsize=62500/nal_hrd=none/filler=0/ip_ratio=1.10/aq=3: 0.80
    Language : English
    Default : Yes
    Forced : No
    Color range : Limited
    Color primaries : BT.709
    Transfer characteristics : BT.709
    Matrix coefficients : BT.709
    Audio #1
    ID : 2
    Format : AC-3
    Format/Info : Audio Coding 3
    Commercial name : Dolby Digital
    Codec ID : A_AC3
    Duration : 2 h 1 min
    Bit rate mode : Constant
    Bit rate : 384 kb/s
    Channel(s) : 6 channels
    Channel layout : L R C LFE Ls Rs
    Sampling rate : 48.0 kHz
    Frame rate : 31.250 FPS (1536 SPF)
    Compression mode : Lossy
    Stream size : 335 MiB (5%)
    Title : Дублированный (iTunes)
    Language : Russian
    Service kind : Complete Main
    Default : Yes
    Forced : No
    Audio #2
    ID : 3
    Format : AC-3
    Format/Info : Audio Coding 3
    Commercial name : Dolby Digital
    Codec ID : A_AC3
    Duration : 2 h 1 min
    Bit rate mode : Constant
    Bit rate : 448 kb/s
    Channel(s) : 6 channels
    Channel layout : L R C LFE Ls Rs
    Sampling rate : 48.0 kHz
    Frame rate : 31.250 FPS (1536 SPF)
    Compression mode : Lossy
    Stream size : 390 MiB (6%)
    Title : Авторский, Михаил Чадов, без цензуры
    Language : Russian
    Service kind : Complete Main
    Default : No
    Forced : No
    Audio #3
    ID : 4
    Format : AC-3
    Format/Info : Audio Coding 3
    Commercial name : Dolby Digital
    Codec ID : A_AC3
    Duration : 2 h 1 min
    Bit rate mode : Constant
    Bit rate : 192 kb/s
    Channel(s) : 2 channels
    Channel layout : L R
    Sampling rate : 48.0 kHz
    Frame rate : 31.250 FPS (1536 SPF)
    Compression mode : Lossy
    Stream size : 167 MiB (3%)
    Title : MVO HDRezka Studio
    Language : Russian
    Service kind : Complete Main
    Default : No
    Forced : No
    Audio #4
    ID : 5
    Format : AC-3
    Format/Info : Audio Coding 3
    Commercial name : Dolby Digital
    Codec ID : A_AC3
    Duration : 2 h 1 min
    Bit rate mode : Constant
    Bit rate : 640 kb/s
    Channel(s) : 6 channels
    Channel layout : L R C LFE Ls Rs
    Sampling rate : 48.0 kHz
    Frame rate : 31.250 FPS (1536 SPF)
    Compression mode : Lossy
    Stream size : 558 MiB (9%)
    Title : Original
    Language : English
    Service kind : Complete Main
    Default : No
    Forced : No
    Text #1
    ID : 6
    Format : UTF-8
    Codec ID : S_TEXT/UTF8
    Codec ID/Info : UTF-8 Plain Text
    Duration : 1 h 54 min
    Bit rate : 8 b/s
    Count of elements : 101
    Stream size : 7.51 KiB (0%)
    Title : Forced Enigma
    Language : Russian
    Default : Yes
    Forced : Yes
    Text #2
    ID : 7
    Format : UTF-8
    Codec ID : S_TEXT/UTF8
    Codec ID/Info : UTF-8 Plain Text
    Duration : 1 h 55 min
    Bit rate : 79 b/s
    Count of elements : 1221
    Stream size : 67.5 KiB (0%)
    Title : Full Enigma
    Language : Russian
    Default : No
    Forced : No
    Text #3
    ID : 8
    Format : UTF-8
    Codec ID : S_TEXT/UTF8
    Codec ID/Info : UTF-8 Plain Text
    Duration : 1 h 57 min
    Bit rate : 75 b/s
    Count of elements : 1108
    Stream size : 64.8 KiB (0%)
    Title : Full iTunes
    Language : English
    Default : No
    Forced : No
    Text #4
    ID : 9
    Format : UTF-8
    Codec ID : S_TEXT/UTF8
    Codec ID/Info : UTF-8 Plain Text
    Duration : 1 h 54 min
    Bit rate : 44 b/s
    Count of elements : 1326
    Stream size : 36.9 KiB (0%)
    Title : Full
    Language : English
    Default : No
    Forced : No
    Text #5
    ID : 10
    Format : UTF-8
    Codec ID : S_TEXT/UTF8
    Codec ID/Info : UTF-8 Plain Text
    Duration : 1 h 58 min
    Bit rate : 55 b/s
    Count of elements : 1735
    Stream size : 47.9 KiB (0%)
    Title : SDH
    Language : English
    Default : No
    Forced : No
    Menu
    00: 00: 01.700 : en: Studio Logo
    00: 00: 15.700 : en: Makeup
    00: 01: 32.700 : en: Broken Sign
    00: 03: 43.700 : en: Therapy
    00: 07: 42.700 : en: Bus
    00: 09: 15.700 : en: Meeting Murray
    00: 15: 21.700 : en: Protection
    00: 19: 13.700 : en: Enter Sophie
    00: 21: 01.700 : en: Bath
    00: 23: 34.700 : en: Following
    00: 24: 53.700 : en: Comedy Scout
    00: 26: 01.700 : en: Invite
    00: 27: 59.700 : en: Hospital Gig
    00: 29: 23.700 : en: Subway Scuffle
    00: 34: 10.700 : en: Fleeing
    00: 36: 14.700 : en: First Kiss
    00: 36: 46.700 : en: Punching Out
    00: 38: 14.700 : en: Wayne Interview
    00: 39: 56.700 : en: Negative Thoughts
    00: 42: 14.700 : en: Open Mic
    00: 45: 15.700 : en: Date
    00: 46: 21.700 : en: Letter to Wayne
    00: 50: 23.700 : en: Clipping
    00: 51: 12.700 : en: Wayne Manor
    00: 55: 16.700 : en: Emergency
    00: 56: 19.700 : en: Detectives
    00: 58: 32.700 : en: Arthur on T.V.
    01: 01: 01.700 : en: Protest Coverage
    01: 02: 18.700 : en: Meeting Wayne
    01: 07: 11.700 : en: Invitation
    01: 09: 36.700 : en: Arkham
    01: 13: 26.700 : en: Penny\'s File
    01: 15: 41.700 : en: Sophie\'s Place
    01: 19: 49.700 : en: Life\'s a Comedy
    01: 22: 12.700 : en: Practice
    01: 24: 28.700 : en: Randall and Gary visit Arthur
    01: 30: 15.700 : en: Stairwell Waltz
    01: 34: 51.700 : en: Dressing Room
    01: 37: 02.700 : en: Arthur\'s Big Moment
    01: 46: 35.700 : en: Riot
    01: 49: 05.700 : en: Crime Alley
    01: 50: 02.700 : en: Joker\'s Fans
    01: 52: 33.700 : en: Thinking of a Joke
    01: 55: 39.700 : en: End Credits

    Скриншоты для ознакомления



    Все одноименные релизы в Клубе
    Время раздачи: 24/7 (до появления первых 3-5 скачавших)

    Онлайн видео Джокер



    Джокер/Joker (2019) BDRip [H.264/1080p-LQ]
    Рейтинг →
     (голосов: 1, оценка 4/5, голосовать можно 1 раз )

    Другие торренты по теме:

  • Джокер / Joker (2019) TS [AD]
  • Джокер / Joker (2012) DVDRip
  • Джокер / Joker (2019) WEBRip [H.264 / 1080p-LQ] [AVO]
  • Джокер / Joker (2019) WEBRip [H.264 / 1080p] [EN / KOR Sub]
  • Джокер / Joker (2019) WEBRip [H.264 / 720p-LQ] [AVO]
  • Джокер / Joker (2019) WEBRip [H.264 / 1080p-LQ] [Line, AD]
  • Джокер / Joker (2019) WEBRip [H.264 / 720p-LQ] [MVO]
  • Джокер / Joker (2019) WEBRip [H.264 / 1080p] [PR]


    • Комментарии (0):

      Информация

      Информация

        Посетители, находящиеся в группе Гости, не могут оставлять комментарии в данной новости.

        ↓ Меню




        ↓ Опрос

        Вы добавили сайт в закладки?
        Да
        Нет


        Популярное