.
Авторизация | Регистрация
bitok.xyz
» » Дитя робота / I Am Mother (2019) BDRemux [H.264 / 1080p] торрент скачать бесплатно


    Дитя робота / I Am Mother (2019) BDRemux [H.264 / 1080p] торрент скачать бесплатно

    Дата: 28-12-2019, 05:00 | .torrent скачали: 2

    Дитя робота / I Am Mother (2019) BDRemux [H.264 / 1080p]Производство: Австралия/The Penguin Empire, Southern Light Films, Rhea Films (II)
    Жанр: Ужасы, фантастика, триллер, драма
    Режиссер: Грант Спьютор
    Продюсер: Джули Бирн, Жан-Люк Де Фанти, Терри Дугас

    Актеры
    Клара Ругор, Роуз Бирн, Хилари Суэнк, Люк Хокер, Мэдди Лентон, Саммер Лентон, Хэйзел Сэндери, Тейлия Стурзэйкер, Джейкоб Нолан, Джонни Карсон

    Описание
    После глобального катаклизма человечество вымирает. В подземном бункере автоматически активизируется аварийная программа, и робот-гуманоид Мать выращивает из эмбриона человеческого ребенка. Девушка, воспитанная под бережным присмотром Матери, никогда не видела ни поверхности Земли, ни других людей. Но однажды её мир переворачивается, когда на пороге убежища появляется женщина с просьбой о помощи.

    Возраст: 16+ (зрителям, достигшим 16 лет)
    Дата мировой премьеры: 25 января 2019
    Дата российской премьеры: 20 июня 2019, Вольга
    Цифровой релиз: 20 августа 2019, Вольга
    Релиз от: NNMClub
    Продолжительность: 01: 53: 34
    Качество видео: BDRemux 1080p
    Перевод: Дублированный(iTunes) , 2 x MVO (СВ Студия, HDRezka studio)
    Субтитры: Русские (Forced, 2xFull iTunes, Focs), Английские (Full)
    Видео: AVC/H.264, 1920x1080, 32.2 Mbps, 24.000 fps
    Аудио 1 : AC-3, 6 ch, 384 Kbps | Русский Dub iTunes
    Аудио 2 : AC-3, 6 ch, 640 Kbps | Русский СВ Студия
    Аудио 3 : AC-3, 2.0 ch, 192 Kbps | Русский HDRezka Studio
    Аудио 4 : DTS-HD MA, 6 ch, 3188 Kbps | Английский
    General
    Unique ID : 161273972280891030185204132690304998629 (0x79543CBC318772BAB963946FD5B09CE5)
    Complete name : /Volumes/Promise 2/I.Am.Mother.BDRemux.1080p.pk.mkv
    Format : Matroska
    Format version : Version 4
    File size : 29.1 GiB
    Duration : 1h 53mn
    Overall bit rate mode : Variable
    Overall bit rate : 36.7 Mbps
    Movie name : I Am Mother BDRemux 1080p pk
    Encoded date : UTC 2019-12-26 11: 18: 47
    Writing application : mkvmerge v41.0.0 (\'Smarra\') 64-bit
    Writing library : libebml v1.3.9 + libmatroska v1.5.2
    Video
    ID : 1
    Format : AVC
    Format/Info : Advanced Video Codec
    Format profile : High@L4.1
    Format settings : CABAC/4 Ref Frames
    Format settings, CABAC : Yes
    Format settings, ReFrames : 4 frames
    Codec ID : V_MPEG4/ISO/AVC
    Duration : 1h 53mn
    Bit rate mode : Variable
    Bit rate : 32.2 Mbps
    Maximum bit rate : 34.0 Mbps
    Width : 1 920 pixels
    Height : 1 080 pixels
    Display aspect ratio : 16: 9
    Frame rate mode : Constant
    Frame rate : 24.000 fps
    Color space : YUV
    Chroma subsampling : 4: 2: 0
    Bit depth : 8 bits
    Scan type : Progressive
    Bits/(Pixel*Frame) : 0.648
    Stream size : 25.6 GiB (88%)
    Language : English
    Default : Yes
    Forced : No
    Audio #1
    ID : 2
    Format : AC-3
    Format/Info : Audio Coding 3
    Commercial name : Dolby Digital
    Codec ID : A_AC3
    Duration : 1h 53mn
    Bit rate mode : Constant
    Bit rate : 384 Kbps
    Channel(s) : 6 channels
    Channel layout : L R C LFE Ls Rs
    Sampling rate : 48.0 KHz
    Frame rate : 31.250 fps (1536 SPF)
    Compression mode : Lossy
    Stream size : 311 MiB (1%)
    Title : Russian Dub iTunes
    Language : Russian
    Service kind : Complete Main
    Default : Yes
    Forced : No
    Audio #2
    ID : 3
    Format : AC-3
    Format/Info : Audio Coding 3
    Commercial name : Dolby Digital
    Codec ID : A_AC3
    Duration : 1h 53mn
    Bit rate mode : Constant
    Bit rate : 640 Kbps
    Channel(s) : 6 channels
    Channel layout : L R C LFE Ls Rs
    Sampling rate : 48.0 KHz
    Frame rate : 31.250 fps (1536 SPF)
    Compression mode : Lossy
    Stream size : 518 MiB (2%)
    Title : Russian MVO СВ Студия
    Language : Russian
    Service kind : Complete Main
    Default : No
    Forced : No
    Audio #3
    ID : 4
    Format : AC-3
    Format/Info : Audio Coding 3
    Commercial name : Dolby Digital
    Codec ID : A_AC3
    Duration : 1h 53mn
    Bit rate mode : Constant
    Bit rate : 192 Kbps
    Channel(s) : 2 channels
    Channel layout : L R
    Sampling rate : 48.0 KHz
    Frame rate : 31.250 fps (1536 SPF)
    Compression mode : Lossy
    Stream size : 155 MiB (1%)
    Title : Russian MVO HDrezka Studio
    Language : Russian
    Service kind : Complete Main
    Default : No
    Forced : No
    Audio #4
    ID : 5
    Format : DTS XLL
    Format/Info : Digital Theater Systems
    Commercial name : DTS-HD Master Audio
    Codec ID : A_DTS
    Duration : 1h 53mn
    Bit rate mode : Variable
    Bit rate : 3 188 Kbps
    Channel(s) : 6 channels
    Channel layout : C L R Ls Rs LFE
    Sampling rate : 48.0 KHz
    Frame rate : 93.750 fps (512 SPF)
    Bit depth : 24 bits
    Compression mode : Lossless
    Stream size : 2.53 GiB (9%)
    Title : English Original
    Language : English
    Default : No
    Forced : No
    Text #1
    ID : 6
    Format : UTF-8
    Codec ID : S_TEXT/UTF8
    Codec ID/Info : UTF-8 Plain Text
    Duration : 58mn 37s
    Bit rate : 1 bps
    Count of elements : 14
    Stream size : 745 Bytes (0%)
    Title : Russian forced
    Language : Russian
    Default : Yes
    Forced : No
    Text #2
    ID : 7
    Format : UTF-8
    Codec ID : S_TEXT/UTF8
    Codec ID/Info : UTF-8 Plain Text
    Duration : 1h 45mn
    Bit rate : 54 bps
    Count of elements : 714
    Stream size : 41.8 KiB (0%)
    Title : Russian full iTunes
    Language : Russian
    Default : No
    Forced : No
    Text #3
    ID : 8
    Format : UTF-8
    Codec ID : S_TEXT/UTF8
    Codec ID/Info : UTF-8 Plain Text
    Duration : 1h 45mn
    Bit rate : 51 bps
    Count of elements : 905
    Stream size : 39.6 KiB (0%)
    Title : Russian full FOCS
    Language : Russian
    Default : No
    Forced : No
    Text #4
    ID : 9
    Format : UTF-8
    Codec ID : S_TEXT/UTF8
    Codec ID/Info : UTF-8 Plain Text
    Duration : 1h 42mn
    Bit rate : 36 bps
    Count of elements : 912
    Stream size : 27.7 KiB (0%)
    Title : English full
    Language : English
    Default : No
    Forced : No
    Menu
    00: 00: 00.000 : en: Chapter 1
    00: 09: 44.125 : en: Chapter 2
    00: 19: 15.583 : en: Chapter 3
    00: 29: 00.916 : en: Chapter 4
    00: 38: 55.333 : en: Chapter 5
    00: 49: 07.500 : en: Chapter 6
    00: 59: 25.041 : en: Chapter 7
    01: 09: 57.500 : en: Chapter 8
    01: 19: 51.875 : en: Chapter 9
    01: 29: 11.041 : en: Chapter 10
    01: 42: 27.208 : en: Chapter 11

    Скриншоты для ознакомления



    Все одноименные релизы в Клубе
    Время раздачи: 24/7 (круглосуточно) (до появления первых 3-5 скачавших)

    Онлайн видео Дитя робота



    Дитя робота/I Am Mother (2019) BDRemux [H.264/1080p]
    Рейтинг →
     (голосов: 1, оценка 3/5, голосовать можно 1 раз )

    Другие торренты по теме:

  • Дитя робота / I Am Mother (2019) WEB-DLRip [MVO] [AD]
  • Дитя робота / Я-мать / I Am Mother (2019) WEBRip [H.264 / 720p-LQ] [MVO]
  • Дитя робота / I Am Mother (2019) WEB-DLRip [H.264 / 1080p-LQ] [MVO] [AD]
  • Дитя робота / I Am Mother (2019) WEBRip [H.264 / 720p-LQ] [MVO]
  • Дитя робота / I Am Mother (2019) WEBRip [H.264 / 1080p-LQ] [MVO]
  • Дитя робота / I Am Mother (2019) WEB-DL [H.265 / 1080p-LQ] [MVO] [PR]
  • Дитя робота / I Am Mother (2019) WEBRip [H.264 / 720p-LQ]
  • Дитя робота / I Am Mother (2019) WEB-DLRip


    • Комментарии (0):

      Информация

      Информация

        Посетители, находящиеся в группе Гости, не могут оставлять комментарии в данной новости.

        ↓ Меню




        ↓ Опрос

        Вы добавили сайт в закладки?
        Да
        Нет


        Популярное