.
Авторизация | Регистрация
bitok.xyz
» » Дитя робота / I Am Mother (2019) BDRip [H.264 / 1080p] торрент скачать бесплатно


    Дитя робота / I Am Mother (2019) BDRip [H.264 / 1080p] торрент скачать бесплатно

    Дата: 28-12-2019, 05:00 | .torrent скачали: 0

    Дитя робота / I Am Mother (2019) BDRip [H.264 / 1080p]Производство: Австралия/The Penguin Empire, Southern Light Films, Rhea Films (II)
    Жанр: Ужасы, фантастика, триллер, драма
    Режиссер: Грант Спьютор

    Актеры
    Роуз Бирн, Хилари Суэнк, Клара Ругор, Люк Хокер, Тейлия Стурзэйкер, Джейкоб Нолан, Хэйзел Сэндери, Саммер Лентон, Мэдди Лентон

    Описание

    После глобального катаклизма человечество вымирает. В подземном бункере автоматически активизируется аварийная программа, и робот-гуманоид Мать выращивает из эмбриона человеческого ребенка. Девушка, воспитанная под бережным присмотром Матери, никогда не видела ни поверхности Земли, ни других людей. Но однажды ее мир переворачивается, когда на пороге убежища появляется женщина с просьбой о помощи…

    Возраст: 16+ (зрителям, достигшим 16 лет)
    Дата мировой премьеры: 25 января 2019
    Дата премьеры в России: 20 июня 2019

    Продолжительность: 01: 53: 34
    Качество видео: BDRip 1080p
    Перевод: Дублированный
    Субтитры: Русские (Forced, Full), английские (Full, SDH)
    Видео: AVC/H.264, 1920x802, ~10 Mbps
    Аудио 1: AC3, 6 ch, 384 Kbps, Русский (DUB iTunes)
    Аудио 2: AC3, 6 ch, 640 Kbps, Английский
    Общее
    Уникальный идентификатор : 51303712352010040053467703346057734525 (0x2698BC4F79ABFF42FC6C1162D4BC697D)
    Полное имя : D: FILMSZALIVI.Am.Mother.2019.BDRip.1080p.mkv
    Формат : Matroska
    Версия формата : Version 4
    Размер файла : 8, 74 Гбайт
    Продолжительность : 1 ч. 53 м.
    Общий поток : 11, 0 Мбит/сек
    Название фильма : I Am Mother 2019 from селезень
    Дата кодирования : UTC 2019-12-25 12: 38: 11
    Программа кодирования : mkvmerge v40.0.0 (\'Old Town Road + Pony\') 64-bit
    Библиотека кодирования : libebml v1.3.9 + libmatroska v1.5.2
    Видео
    Идентификатор : 1
    Формат : AVC
    Формат/Информация : Advanced Video Codec
    Профиль формата : High@L4.1
    Настройки формата : CABAC/5 Ref Frames
    Параметр CABAC формата : Да
    Параметр RefFrames формата : 5 кадров
    Идентификатор кодека : V_MPEG4/ISO/AVC
    Продолжительность : 1 ч. 53 м.
    Битрейт : 10000 Кбит/сек
    Ширина : 1920 пикселей
    Высота : 802 пикселя
    Соотношение сторон : 2, 40: 1
    Режим частоты кадров : Постоянный
    Частота кадров : 24, 000 кадра/сек
    Цветовое пространство : YUV
    Субдискретизация насыщенности : 4: 2: 0
    Битовая глубина : 8 бит
    Тип развёртки : Прогрессивная
    Бит/(Пиксели*Кадры) : 0.271
    Размер потока : 7, 93 Гбайт (91%)
    Заголовок : Encoded by seleZen
    Библиотека кодирования : x264 core 148 r2705kMod 3f5ed56
    Настройки программы : cabac=1/ref=5/deblock=1: -2: -2/analyse=0x3: 0x113/me=umh/subme=11/psy=1/fade_compensate=0.00/psy_rd=1.00: 0.00/mixed_ref=1/me_range=32/chroma_me=1/trellis=2/8x8dct=1/cqm=0/deadzone=21, 11/fast_pskip=0/chroma_qp_offset=-2/threads=24/lookahead_threads=6/sliced_threads=0/nr=0/decimate=0/interlaced=0/bluray_compat=0/constrained_intra=0/fgo=0/bframes=10/b_pyramid=2/b_adapt=2/b_bias=0/direct=3/weightb=1/open_gop=0/weightp=2/keyint=240/keyint_min=24/scenecut=40/intra_refresh=0/rc_lookahead=50/rc=2pass/mbtree=0/bitrate=10000/ratetol=1.0/qcomp=0.60/qpmin=0/qpmax=51/qpstep=4/cplxblur=20.0/qblur=0.5/vbv_maxrate=50000/vbv_bufsize=62500/nal_hrd=none/filler=0/ip_ratio=1.40/pb_ratio=1.30/aq=3: 0.80
    Язык : English
    Default : Да
    Forced : Нет
    Аудио #1
    Идентификатор : 2
    Формат : AC-3
    Формат/Информация : Audio Coding 3
    Коммерческое название : Dolby Digital
    Идентификатор кодека : A_AC3
    Продолжительность : 1 ч. 53 м.
    Вид битрейта : Постоянный
    Битрейт : 384 Кбит/сек
    Каналы : 6 каналов
    ChannelLayout : L R C LFE Ls Rs
    Частота : 48, 0 КГц
    Частота кадров : 31, 250 кадров/сек (1536 SPF)
    Метод сжатия : С потерями
    Размер потока : 311 Мбайт (3%)
    Заголовок : iTunes
    Язык : Russian
    ServiceKind/String : Complete Main
    Default : Да
    Forced : Да
    Аудио #2
    Идентификатор : 3
    Формат : AC-3
    Формат/Информация : Audio Coding 3
    Коммерческое название : Dolby Digital
    Идентификатор кодека : A_AC3
    Продолжительность : 1 ч. 53 м.
    Вид битрейта : Постоянный
    Битрейт : 640 Кбит/сек
    Каналы : 6 каналов
    ChannelLayout : L R C LFE Ls Rs
    Частота : 48, 0 КГц
    Частота кадров : 31, 250 кадров/сек (1536 SPF)
    Метод сжатия : С потерями
    Размер потока : 520 Мбайт (6%)
    Заголовок : Original
    Язык : English
    ServiceKind/String : Complete Main
    Default : Нет
    Forced : Нет
    Текст #1
    Идентификатор : 4
    Формат : UTF-8
    Идентификатор кодека : S_TEXT/UTF8
    Идентификатор кодека/Информация : UTF-8 Plain Text
    Продолжительность : 58 м. 37 с.
    Битрейт : 1 бит/сек
    ElementCount : 14
    Размер потока : 737 байт (0%)
    Заголовок : Forced
    Язык : Russian
    Default : Да
    Forced : Да
    Текст #2
    Идентификатор : 5
    Формат : UTF-8
    Идентификатор кодека : S_TEXT/UTF8
    Идентификатор кодека/Информация : UTF-8 Plain Text
    Продолжительность : 1 ч. 45 м.
    Битрейт : 51 бит/сек
    ElementCount : 905
    Размер потока : 39, 5 Кбайт (0%)
    Заголовок : Full
    Язык : Russian
    Default : Нет
    Forced : Нет
    Текст #3
    Идентификатор : 6
    Формат : UTF-8
    Идентификатор кодека : S_TEXT/UTF8
    Идентификатор кодека/Информация : UTF-8 Plain Text
    Продолжительность : 1 ч. 42 м.
    Битрейт : 36 бит/сек
    ElementCount : 912
    Размер потока : 27, 7 Кбайт (0%)
    Заголовок : Full
    Язык : English
    Default : Нет
    Forced : Нет
    Текст #4
    Идентификатор : 7
    Формат : UTF-8
    Идентификатор кодека : S_TEXT/UTF8
    Идентификатор кодека/Информация : UTF-8 Plain Text
    Продолжительность : 1 ч. 45 м.
    Битрейт : 42 бит/сек
    ElementCount : 1156
    Размер потока : 32, 7 Кбайт (0%)
    Заголовок : SDH
    Язык : English
    Default : Нет
    Forced : Нет
    Меню
    00: 00: 00.000 : en: Глава 01
    00: 10: 07.000 : en: Глава 02
    00: 19: 38.458 : en: Глава 03
    00: 29: 23.792 : en: Глава 04
    00: 39: 18.208 : en: Глава 05
    00: 49: 30.375 : en: Глава 06
    00: 59: 47.917 : en: Глава 07
    01: 10: 20.375 : en: Глава 08
    01: 20: 14.750 : en: Глава 09
    01: 29: 33.917 : en: Глава 10
    01: 42: 50.083 : en: Глава 11

    Скриншоты для ознакомления



    Все одноименные релизы в Клубе Время раздачи: c 5 до 19 мск (до появления первых 3-5 скачавших)

    Онлайн видео Дитя робота



    Дитя робота/I Am Mother (2019) BDRip [H.264/1080p]
    Рейтинг →
     (голосов: 1, оценка 4/5, голосовать можно 1 раз )

    Другие торренты по теме:

  • Дитя робота / I Am Mother (2019) WEB-DLRip [MVO] [AD]
  • Дитя робота / Я-мать / I Am Mother (2019) WEBRip [H.264 / 720p-LQ] [MVO]
  • Дитя робота / I Am Mother (2019) WEB-DLRip [H.264 / 1080p-LQ] [MVO] [AD]
  • Дитя робота / I Am Mother (2019) WEBRip [H.264 / 720p-LQ] [MVO]
  • Дитя робота / I Am Mother (2019) WEBRip [H.264 / 1080p-LQ] [MVO]
  • Дитя робота / I Am Mother (2019) WEB-DL [H.265 / 1080p-LQ] [MVO] [PR]
  • Дитя робота / I Am Mother (2019) WEBRip [H.264 / 720p-LQ]
  • Дитя робота / I Am Mother (2019) WEB-DLRip


    • Комментарии (0):

      Информация

      Информация

        Посетители, находящиеся в группе Гости, не могут оставлять комментарии в данной новости.

        ↓ Меню




        ↓ Опрос

        Вы добавили сайт в закладки?
        Да
        Нет


        Популярное