.
Авторизация | Регистрация
bitok.xyz
» » Оно 2 / It Chapter Two (2019) BDRip [H.264 / 1080p] торрент скачать бесплатно


    Оно 2 / It Chapter Two (2019) BDRip [H.264 / 1080p] торрент скачать бесплатно

    Дата: 28-12-2019, 05:00 | .torrent скачали: 0

    Оно 2 / It Chapter Two (2019) BDRip [H.264 / 1080p]Производство: Канада, США/KatzSmith Productions, Lin Pictures, New Line Cinema
    Жанр: Ужасы, фэнтези, драма, экранизация
    Режиссер: Андрес Мускетти

    Актеры
    Джессика Честейн, Джеймс МакЭвой, Билл Хэйдер, Айзая Мустафа, Джей Райан, Джеймс Рэнсон, Энди Бин, Билл Скарсгард, Джейден Мартелл, Уайатт Олефф

    Описание

    Проходит 27 лет после первой встречи ребят с демоническим Пеннивайзом. Они уже выросли, и у каждого своя жизнь. Но неожиданно их спокойное существование нарушает странный телефонный звонок, который заставляет их вновь собраться вместе.

    Возраст: 18+ (зрителям, достигшим 18 лет. запрещено для детей)
    Рейтинг MPAA: R (лицам до 17 лет обязательно присутствие взрослого)
    Дата мировой премьеры: 26 августа 2019
    Дата премьеры в России: 5 сентября 2019

    Релиз от: селезень
    Продолжительность: 02: 49: 25
    Качество видео: BDRip (1080p)
    Перевод: Дублированный (лицензия), профессиональный многоголосый
    Субтитры: Русские (forced, 2 х full), украинские (forced), английские (SDH)
    Видео: AVC/H.264, 1920x804, ~10, 1 Mbps
    Аудио #1: AC3, 6 ch, 448 Kbps - Русский (дублированный)
    Аудио #2: AC3, 2 ch, 192 Kbps - Русский (MVO - HDRezka Studio)
    Аудио #3: AC3, 6 ch, 384 Kbps - Украинский (дублированный)
    Аудио #4: AC3, 6 ch, 640 Kbps - Английский (оригинал)
    Общее
    Уникальный идентификатор : 242185385199981754875057171533303532124 (0xB633356333D7DEF01D7954A248DE4A5C)
    Полное имя : D: NNMОноIt.Chapter.Two.2019.BDRip.1080p.mkv
    Формат : Matroska
    Версия формата : Version 4
    Размер файла : 13, 9 Гбайт
    Продолжительность : 2 ч. 49 м.
    Общий поток : 11, 8 Мбит/сек
    Название фильма : It Chapter Two 2019 from селезень
    Дата кодирования : UTC 2019-12-26 21: 45: 19
    Программа кодирования : mkvmerge v40.0.0 (\'Old Town Road + Pony\') 64-bit
    Библиотека кодирования : libebml v1.3.9 + libmatroska v1.5.2
    Видео
    Идентификатор : 1
    Формат : AVC
    Формат/Информация : Advanced Video Codec
    Профиль формата : High@L4.1
    Настройки формата : CABAC/5 Ref Frames
    Параметр CABAC формата : Да
    Параметр RefFrames формата : 5 кадров
    Идентификатор кодека : V_MPEG4/ISO/AVC
    Продолжительность : 2 ч. 49 м.
    Битрейт : 10, 1 Мбит/сек
    Ширина : 1920 пикселей
    Высота : 804 пикселя
    Соотношение сторон : 2, 40: 1
    Режим частоты кадров : Постоянный
    Частота кадров : 23, 976 (24000/1001) кадра/сек
    Цветовое пространство : YUV
    Субдискретизация насыщенности : 4: 2: 0
    Битовая глубина : 8 бит
    Тип развёртки : Прогрессивная
    Бит/(Пиксели*Кадры) : 0.273
    Размер потока : 12, 0 Гбайт (86%)
    Заголовок : HDH
    Библиотека кодирования : x264 core 142 r2431+42 c69a006 tMod 8-bit@4: 2: 0 X86_64
    Настройки программы : cabac=1/ref=5/deblock=1: -3: -3/analyse=0x3: 0x113/me=umh/subme=10/psy=1/fade_compensate=0.00/psy_rd=1.00: 0.05/mixed_ref=1/me_range=48/chroma_me=1/trellis=2/8x8dct=1/cqm=0/deadzone=21, 11/fast_pskip=0/chroma_qp_offset=-2/threads=48/lookahead_threads=6/sliced_threads=0/nr=0/decimate=1/interlaced=0/bluray_compat=0/constrained_intra=0/fgo=0/bframes=8/b_pyramid=2/b_adapt=2/b_bias=0/direct=3/weightb=1/open_gop=0/weightp=2/keyint=250/keyint_min=23/scenecut=40/intra_refresh=0/rc_lookahead=40/rc=crf/mbtree=0/crf=17.1000/qcomp=0.60/qpmin=0: 0: 0/qpmax=69: 69: 69/qpstep=4/vbv_maxrate=40000/vbv_bufsize=30000/crf_max=0.0/nal_hrd=none/filler=0/ip_ratio=1.40/pb_ratio=1.30/aq=3: 0.80/aq-sensitivity=10.00/aq-factor=1.00: 1.00: 1.00/aq2=0/aq3=0
    Язык : English
    Default : Да
    Forced : Нет
    Цветовой диапазон : Limited
    Коэффициенты матрицы : BT.709
    Аудио #1
    Идентификатор : 2
    Формат : AC-3
    Формат/Информация : Audio Coding 3
    Коммерческое название : Dolby Digital
    Идентификатор кодека : A_AC3
    Продолжительность : 2 ч. 49 м.
    Вид битрейта : Постоянный
    Битрейт : 448 Кбит/сек
    Каналы : 6 каналов
    ChannelLayout : L R C LFE Ls Rs
    Частота : 48, 0 КГц
    Частота кадров : 31, 250 кадров/сек (1536 SPF)
    Метод сжатия : С потерями
    Размер потока : 543 Мбайт (4%)
    Заголовок : Dub License
    Язык : Russian
    ServiceKind/String : Complete Main
    Default : Да
    Forced : Да
    Аудио #2
    Идентификатор : 3
    Формат : AC-3
    Формат/Информация : Audio Coding 3
    Коммерческое название : Dolby Digital
    Идентификатор кодека : A_AC3
    Продолжительность : 2 ч. 49 м.
    Вид битрейта : Постоянный
    Битрейт : 192 Кбит/сек
    Каналы : 2 канала
    ChannelLayout : L R
    Частота : 48, 0 КГц
    Частота кадров : 31, 250 кадров/сек (1536 SPF)
    Метод сжатия : С потерями
    Размер потока : 233 Мбайт (2%)
    Заголовок : MVO HDRezka Studio
    Язык : Russian
    ServiceKind/String : Complete Main
    Default : Нет
    Forced : Нет
    Аудио #3
    Идентификатор : 4
    Формат : AC-3
    Формат/Информация : Audio Coding 3
    Коммерческое название : Dolby Digital
    Идентификатор кодека : A_AC3
    Продолжительность : 2 ч. 49 м.
    Вид битрейта : Постоянный
    Битрейт : 384 Кбит/сек
    Каналы : 6 каналов
    ChannelLayout : L R C LFE Ls Rs
    Частота : 48, 0 КГц
    Частота кадров : 31, 250 кадров/сек (1536 SPF)
    Метод сжатия : С потерями
    Размер потока : 465 Мбайт (3%)
    Заголовок : Dub
    Язык : Ukrainian
    ServiceKind/String : Complete Main
    Default : Нет
    Forced : Нет
    Аудио #4
    Идентификатор : 5
    Формат : AC-3
    Формат/Информация : Audio Coding 3
    Коммерческое название : Dolby Digital
    Идентификатор кодека : A_AC3
    Продолжительность : 2 ч. 49 м.
    Вид битрейта : Постоянный
    Битрейт : 640 Кбит/сек
    Каналы : 6 каналов
    ChannelLayout : L R C LFE Ls Rs
    Частота : 48, 0 КГц
    Частота кадров : 31, 250 кадров/сек (1536 SPF)
    Метод сжатия : С потерями
    Размер потока : 776 Мбайт (5%)
    Заголовок : Original
    Язык : English
    ServiceKind/String : Complete Main
    Default : Нет
    Forced : Нет
    Текст #1
    Идентификатор : 6
    Формат : UTF-8
    Идентификатор кодека : S_TEXT/UTF8
    Идентификатор кодека/Информация : UTF-8 Plain Text
    Продолжительность : 2 ч. 48 м.
    Битрейт : 1 бит/сек
    ElementCount : 68
    Размер потока : 2, 40 Кбайт (0%)
    Заголовок : Forced
    Язык : Russian
    Default : Да
    Forced : Да
    Текст #2
    Идентификатор : 7
    Формат : UTF-8
    Идентификатор кодека : S_TEXT/UTF8
    Идентификатор кодека/Информация : UTF-8 Plain Text
    Продолжительность : 2 ч. 48 м.
    Битрейт : 76 бит/сек
    ElementCount : 2331
    Размер потока : 94, 7 Кбайт (0%)
    Заголовок : Full
    Язык : Russian
    Default : Нет
    Forced : Нет
    Текст #3
    Идентификатор : 8
    Формат : UTF-8
    Идентификатор кодека : S_TEXT/UTF8
    Идентификатор кодека/Информация : UTF-8 Plain Text
    Продолжительность : 2 ч. 44 м.
    Битрейт : 72 бит/сек
    ElementCount : 1705
    Размер потока : 87, 9 Кбайт (0%)
    Заголовок : Full FOCS
    Язык : Russian
    Default : Нет
    Forced : Нет
    Текст #4
    Идентификатор : 9
    Формат : UTF-8
    Идентификатор кодека : S_TEXT/UTF8
    Идентификатор кодека/Информация : UTF-8 Plain Text
    Продолжительность : 2 ч. 48 м.
    Битрейт : 1 бит/сек
    ElementCount : 66
    Размер потока : 2, 33 Кбайт (0%)
    Заголовок : Forced
    Язык : Ukrainian
    Default : Нет
    Forced : Нет
    Текст #5
    Идентификатор : 10
    Формат : UTF-8
    Идентификатор кодека : S_TEXT/UTF8
    Идентификатор кодека/Информация : UTF-8 Plain Text
    Продолжительность : 2 ч. 44 м.
    Битрейт : 60 бит/сек
    ElementCount : 2828
    Размер потока : 72, 8 Кбайт (0%)
    Заголовок : SDH
    Язык : English
    Default : Нет
    Forced : Нет
    Меню
    00: 00: 00.000 : en: Chapter 01
    00: 09: 10.341 : en: Chapter 02
    00: 19: 06.354 : en: Chapter 03
    00: 27: 00.744 : en: Chapter 04
    00: 37: 51.227 : en: Chapter 05
    00: 46: 19.986 : en: Chapter 06
    00: 55: 46.802 : en: Chapter 07
    01: 05: 36.474 : en: Chapter 08
    01: 17: 19.134 : en: Chapter 09
    01: 29: 21.565 : en: Chapter 10
    01: 41: 02.974 : en: Chapter 11
    01: 49: 11.336 : en: Chapter 12
    01: 59: 33.833 : en: Chapter 13
    02: 05: 31.774 : en: Chapter 14
    02: 14: 25.933 : en: Chapter 15
    02: 22: 43.889 : en: Chapter 16
    02: 32: 57.168 : en: Chapter 17
    02: 42: 15.643 : en: Chapter 18
    02: 44: 52.508 : en: Chapter 19

    Скриншоты для ознакомления



    Все одноименные релизы в Клубе Время раздачи: 24/7 (до появления первых 3-5 скачавших)

    Онлайн видео Оно 2



    Оно 2/It Chapter Two (2019) BDRip [H.264/1080p]
    Рейтинг →
     (голосов: 1, оценка 4/5, голосовать можно 1 раз )

    Другие торренты по теме:

  • Nodame Cantabile Paris Hen | Nodame Cantabile Paris Chapter | Нодамэ Кантабиле (второй сезон) [2008, TV, 11 эп.] BDRip 1080p Hi10P raw скачать через торрент бесплатно
  • Астрал 3 / Insidious: Chapter 3 (2015) BDRip [H.264 / 1080p] скачать через торрент бесплатно
  • Астрал 3 / Insidious: Chapter 3 (2015) BDRip [H.264 / 720p] скачать через торрент бесплатно
  • Астрал 3 / Insidious: Chapter 3 (2015) BDRip [H.264] [MP4|576p] скачать через торрент бесплатно
  • Астрал 3 / Insidious: Chapter 3 (2015) BDRip [H.264] скачать через торрент бесплатно
  • Астрал 3 / Insidious: Chapter 3 (2015) BDRip [H.264 / 1080p] скачать через торрент бесплатно
  • Астрал 3 / Insidious: Chapter 3 (2015) BDRip [H.264 / 720p] скачать через торрент бесплатно
  • Астрал 3 / Insidious: Chapter 3 (2015) BDRip [H.265 / 1080p-LQ]


    • Комментарии (0):

      Информация

      Информация

        Посетители, находящиеся в группе Гости, не могут оставлять комментарии в данной новости.

        ↓ Меню




        ↓ Опрос

        Вы добавили сайт в закладки?
        Да
        Нет


        Популярное