.
Авторизация | Регистрация
bitok.xyz
» » Санта Клаус / The Santa Clause (1994) BDRip [H.264 / 720p] торрент скачать бесплатно


    Санта Клаус / The Santa Clause (1994) BDRip [H.264 / 720p] торрент скачать бесплатно

    Дата: 28-12-2019, 05:00 | .torrent скачали: 0

    Санта Клаус / The Santa Clause (1994) BDRip [H.264 / 720p]Производство: США/Walt Disney Pictures, Hollywood Pictures
    Жанр: фэнтези, драма, комедия, семейный
    Режиссер: Джон Паскуин

    Актеры
    Тим Аллен, Джадж Райнхолд, Венди Крюсон, Эрик Ллойд, Дэвид Крамхолц, Ларри Бранденбург, Мэри Гросс, Пейдж Тамада, Питер Бойл, Джудит Скотт

    Описание

    В рождественскую ночь продавец игрушек Скотт Кэлвин случайно сталкивает со своей крыши странного старичка. К его невероятному удивлению, там же он обнаруживает припаркованного северного оленя.
    Пока незнакомец беспомощно барахтается в сугробе, любопытный Скотт вскакивает в седло — и оказывается на Северном Полюсе, где главный эльф убеждает его занять место Санта Клауса, который в данный момент лежит возле дома Кэлвина и не может выполнять свои обязанности.
    Он соглашается, но одно дело — напялить на себя костюм и плясать с детишками, и совсем другое — быть настоящим Сантой, когда у тебя на самом деле растет борода, пузо, и на глазах седеют волосы. Такого веселого Рождества у него еще не было…

    Возраст: 6+ (зрителям, достигшим 6 лет)
    Рейтинг MPAA: PG (рекомендуется присутствие родителей)
    Продолжительность: 01: 37: 08
    Качество видео: BDRip 720p
    Перевод: Многоголосый профессиональный
    Субтитры: русские, английские
    Видео: AVC/H.264, 1280x694, ~7800 kbps
    Аудио 1: AC3, 2 ch, 320 kbps, Русский (MVO Blu-ray CEE)
    Аудио 2: AC3, 6 ch, 448 kbps, Английский
    Общее
    Уникальный идентификатор : 237401879143475361869022049628270689749 (0xB299F0548443CB7CA30D349E5D94FDD5)
    Полное имя : D: FILMSZALIVSanta.Clause.1994.BDRip.720p.mkv
    Формат : Matroska
    Версия формата : Version 2
    Размер файла : 5, 81 Гбайт
    Продолжительность : 1 ч. 37 м.
    Общий поток : 8568 Кбит/сек
    Название фильма : -= MediaClub =- rip by Lefevr
    Дата кодирования : UTC 2013-12-17 22: 48: 35
    Программа кодирования : mkvmerge v5.4.0 (\'Piper\') built on Mar 10 2012 13: 34: 39
    Библиотека кодирования : libebml v1.2.3 + libmatroska v1.3.0
    Видео
    Идентификатор : 1
    Формат : AVC
    Формат/Информация : Advanced Video Codec
    Профиль формата : High@L4.1
    Настройки формата : CABAC/8 Ref Frames
    Параметр CABAC формата : Да
    Параметр RefFrames формата : 8 кадров
    Идентификатор кодека : V_MPEG4/ISO/AVC
    Продолжительность : 1 ч. 37 м.
    Битрейт : 7800 Кбит/сек
    Ширина : 1280 пикселей
    Высота : 694 пикселя
    Соотношение сторон : 1, 85: 1
    Режим частоты кадров : Постоянный
    Частота кадров : 23, 976 кадра/сек
    Цветовое пространство : YUV
    Субдискретизация насыщенности : 4: 2: 0
    Битовая глубина : 8 бит
    Тип развёртки : Прогрессивная
    Бит/(Пиксели*Кадры) : 0.366
    Размер потока : 5, 18 Гбайт (89%)
    Заголовок : Santa.Klaus.1994.x264.BDRip.720p.MediaClub
    Библиотека кодирования : x264 core 130 r2273 b3065e6
    Настройки программы : cabac=1/ref=8/deblock=1: -2: -2/analyse=0x3: 0x133/me=umh/subme=11/psy=1/psy_rd=1.00: 0.20/mixed_ref=1/me_range=32/chroma_me=1/trellis=2/8x8dct=1/cqm=0/deadzone=21, 11/fast_pskip=0/chroma_qp_offset=-3/threads=6/lookahead_threads=1/sliced_threads=0/nr=0/decimate=0/interlaced=0/bluray_compat=0/constrained_intra=0/bframes=8/b_pyramid=2/b_adapt=2/b_bias=0/direct=3/weightb=1/open_gop=0/weightp=2/keyint=240/keyint_min=23/scenecut=40/intra_refresh=0/rc=2pass/mbtree=0/bitrate=7800/ratetol=1.0/qcomp=0.60/qpmin=0/qpmax=69/qpstep=4/cplxblur=20.0/qblur=0.5/ip_ratio=1.40/pb_ratio=1.30/aq=1: 1.00
    Язык : English
    Default : Да
    Forced : Да
    Аудио #1
    Идентификатор : 2
    Формат : AC-3
    Формат/Информация : Audio Coding 3
    Коммерческое название : Dolby Digital
    Идентификатор кодека : A_AC3
    Продолжительность : 1 ч. 37 м.
    Вид битрейта : Постоянный
    Битрейт : 320 Кбит/сек
    Каналы : 2 канала
    ChannelLayout : L R
    Частота : 48, 0 КГц
    Частота кадров : 31, 250 кадров/сек (1536 SPF)
    Метод сжатия : С потерями
    Размер потока : 222 Мбайт (4%)
    Заголовок : TRACK_01_MVO_RUS
    Язык : Russian
    ServiceKind/String : Complete Main
    Default : Да
    Forced : Да
    Аудио #2
    Идентификатор : 3
    Формат : AC-3
    Формат/Информация : Audio Coding 3
    Коммерческое название : Dolby Digital
    Идентификатор кодека : A_AC3
    Продолжительность : 1 ч. 37 м.
    Вид битрейта : Постоянный
    Битрейт : 448 Кбит/сек
    Каналы : 6 каналов
    ChannelLayout : L R C LFE Ls Rs
    Частота : 48, 0 КГц
    Частота кадров : 31, 250 кадров/сек (1536 SPF)
    Метод сжатия : С потерями
    Размер потока : 311 Мбайт (5%)
    Заголовок : TRACK_02_ORIGINAL_ENG
    Язык : English
    ServiceKind/String : Complete Main
    Default : Нет
    Forced : Нет
    Текст #1
    Идентификатор : 4
    Формат : UTF-8
    Идентификатор кодека : S_TEXT/UTF8
    Идентификатор кодека/Информация : UTF-8 Plain Text
    Заголовок : TEXT_01_SUB_RUS
    Язык : Russian
    Default : Нет
    Forced : Нет
    Текст #2
    Идентификатор : 5
    Формат : UTF-8
    Идентификатор кодека : S_TEXT/UTF8
    Идентификатор кодека/Информация : UTF-8 Plain Text
    Заголовок : TEXT_02_SUB_ENG_SDH
    Язык : English
    Default : Нет
    Forced : Нет
    Меню
    00: 00: 00.000 : en: Chapter 01
    00: 06: 51.828 : en: Chapter 02
    00: 12: 48.434 : en: Chapter 03
    00: 17: 21.290 : en: Chapter 04
    00: 26: 58.325 : en: Chapter 05
    00: 32: 11.220 : en: Chapter 06
    00: 39: 43.881 : en: Chapter 07
    00: 44: 10.648 : en: Chapter 08
    00: 49: 39.101 : en: Chapter 09
    00: 57: 55.013 : en: Chapter 10
    01: 04: 55.600 : en: Chapter 11
    01: 11: 26.031 : en: Chapter 12
    01: 13: 13.222 : en: Chapter 13
    01: 17: 12.628 : en: Chapter 14
    01: 20: 17.270 : en: Chapter 15
    01: 23: 04.354 : en: Chapter 16
    01: 33: 01.409 : en: Chapter 17
    01: 37: 08.030 : en: Chapter 18

    Скриншоты для ознакомления



    Все релизы Санта Клауса в Клубе
    Время раздачи: c 5 до 19 мск (до появления первых 3-5 скачавших)

    Онлайн видео Санта Клаус



    Санта Клаус/The Santa Clause (1994) BDRip [H.264/720p]
    Рейтинг →
     (голосов: 1, оценка 3/5, голосовать можно 1 раз )

    Другие торренты по теме:

  • Санта Клаус 3 Хозяин полюса / Santa Clause 3 Escape Clause (2006) BDRemux [1080p]
  • Растровый клипарт - Весельчак Санта Клаус [JPG]
  • Санта Клаус 2 / The Santa Clause 2 (2002) BDRip [H.264 / 720p]
  • Санта Клаус / The Santa Clause (1994, 2002, 2006) BDRip [Трилогия]
  • Санта Клаус / The Santa Clause (1994, 2002, 2006) BDRip [H.265 / 1080p] [10-bit] [Трилогия]


    • Комментарии (0):

      Информация

      Информация

        Посетители, находящиеся в группе Гости, не могут оставлять комментарии в данной новости.

        ↓ Меню




        ↓ Опрос

        Вы добавили сайт в закладки?
        Да
        Нет


        Популярное