.
Авторизация | Регистрация
bitok.xyz
» » Санта Клаус 2 / The Santa Clause 2 (2002) BDRip [H.264 / 720p] торрент скачать бесплатно


    Санта Клаус 2 / The Santa Clause 2 (2002) BDRip [H.264 / 720p] торрент скачать бесплатно

    Дата: 28-12-2019, 05:00 | .torrent скачали: 0

    Санта Клаус 2 / The Santa Clause 2 (2002) BDRip [H.264 / 720p]Производство: США/Walt Disney Pictures, Outlaw Productions (I), Boxing Cat Films
    Жанр: фэнтези, комедия, семейный
    Режиссер: Майкл Лембек

    Актеры
    им Аллен, Элизабет Митчелл, Дэвид Крамхолц, Эрик Ллойд, Джадж Райнхолд, Венди Крюсон, Спенсер Бреслин, Лилиана Муми, Даниэль Вудман, Арт ЛаФлёр

    Описание

    Вот уже восемь лет Скотт Кэлвин работает Санта Клаусом не покладая рук и как следует вошел во вкус. Однако это не значит, что у него не осталось никаких забот. На подступах к очередному Новому году герой вдруг открывает, что его сын Чарли растет хулиганом, а сам он согласно контракту обязан безотлагательно найти себе миссис Клаус, потому что холостой Санта — нарушение всех мыслимых правил.
    Вдобавок, пытаясь одновременно решить возникшие проблемы, он неосторожно поручает дела двойнику, который в его отсутствие превращает жизнь на полюсе в полный хаос!

    Возраст: 12+ (зрителям, достигшим 12 лет)
    Рейтинг MPAA: G (нет возрастных ограничений)
    Продолжительность: 01: 44: 22
    Качество видео: BDRip 720p
    Перевод: Многоголосый профессиональный
    Субтитры: русские, английские
    Видео: AVC/H.264, 1280x694, ~8579 kbps
    Аудио 1: AC3, 2 ch, 320 kbps, Русский (MVO Blu-ray CEE)
    Аудио 2: DTS, 6 ch, 1509 kbps, Английский
    Общее
    Уникальный идентификатор : 222746425246373834892870292186981649989 (0xA79366AA793CB2798FEAA4675A86CE45)
    Полное имя : D: FILMSZALIVSanta.Clause.2.2002.720p.BluRay.mkv
    Формат : Matroska
    Версия формата : Version 2
    Размер файла : 7, 74 Гбайт
    Продолжительность : 1 ч. 44 м.
    Общий поток : 10, 6 Мбит/сек
    Дата кодирования : UTC 2013-01-17 19: 28: 08
    Программа кодирования : mkvmerge v4.2.0 (\'No Talking\') сборка от Jul 28 2010 18: 38: 23
    Библиотека кодирования : libebml v1.0.0 + libmatroska v1.0.0
    Видео
    Идентификатор : 1
    Формат : AVC
    Формат/Информация : Advanced Video Codec
    Профиль формата : High@L4.1
    Настройки формата : CABAC/9 Ref Frames
    Параметр CABAC формата : Да
    Параметр RefFrames формата : 9 кадров
    Идентификатор кодека : V_MPEG4/ISO/AVC
    Продолжительность : 1 ч. 44 м.
    Битрейт : 8579 Кбит/сек
    Ширина : 1280 пикселей
    Высота : 694 пикселя
    Соотношение сторон : 1, 85: 1
    Режим частоты кадров : Постоянный
    Частота кадров : 23, 976 (24000/1001) кадра/сек
    Цветовое пространство : YUV
    Субдискретизация насыщенности : 4: 2: 0
    Битовая глубина : 8 бит
    Тип развёртки : Прогрессивная
    Бит/(Пиксели*Кадры) : 0.403
    Размер потока : 6, 25 Гбайт (81%)
    Библиотека кодирования : x264 core 128 r2216kMod 198a7ea
    Настройки программы : cabac=1/ref=9/deblock=1: -3: -3/analyse=0x3: 0x133/me=umh/subme=9/psy=1/fade_compensate=0.00/psy_rd=1.15: 0.00/mixed_ref=1/me_range=48/chroma_me=1/trellis=2/8x8dct=1/cqm=0/deadzone=21, 11/fast_pskip=0/chroma_qp_offset=-2/threads=6/lookahead_threads=1/sliced_threads=0/nr=0/decimate=0/interlaced=0/bluray_compat=0/constrained_intra=0/bframes=8/b_pyramid=2/b_adapt=2/b_bias=0/direct=3/weightb=1/open_gop=0/weightp=2/keyint=250/keyint_min=23/scenecut=40/intra_refresh=0/rc=crf/mbtree=0/crf=18.0000/qcomp=0.75/qpmin=0/qpmax=69/qpstep=4/ip_ratio=1.40/pb_ratio=1.30/aq=2: 0.70
    Язык : English
    Default : Да
    Forced : Нет
    Аудио #1
    Идентификатор : 2
    Формат : AC-3
    Формат/Информация : Audio Coding 3
    Коммерческое название : Dolby Digital
    Идентификатор кодека : A_AC3
    Продолжительность : 1 ч. 44 м.
    Вид битрейта : Постоянный
    Битрейт : 320 Кбит/сек
    Каналы : 2 канала
    ChannelLayout : L R
    Частота : 48, 0 КГц
    Частота кадров : 31, 250 кадров/сек (1536 SPF)
    Метод сжатия : С потерями
    Размер потока : 239 Мбайт (3%)
    Заголовок : AC3 2.0 @ 320 kbps - Многоголосый закадровый, Blu-ray
    Язык : Russian
    ServiceKind/String : Complete Main
    Default : Да
    Forced : Нет
    Аудио #2
    Идентификатор : 3
    Формат : DTS
    Формат/Информация : Digital Theater Systems
    Идентификатор кодека : A_DTS
    Продолжительность : 1 ч. 44 м.
    Вид битрейта : Постоянный
    Битрейт : 1509 Кбит/сек
    Каналы : 6 каналов
    ChannelLayout : C L R Ls Rs LFE
    Частота : 48, 0 КГц
    Частота кадров : 93, 750 кадра/сек (512 SPF)
    Битовая глубина : 24 бит
    Метод сжатия : С потерями
    Задержка видео : 11 мс.
    Размер потока : 1, 10 Гбайт (14%)
    Заголовок : DTS 5.1 @ 1536 kbps
    Язык : English
    Default : Нет
    Forced : Нет
    Текст #1
    Идентификатор : 4
    Формат : UTF-8
    Идентификатор кодека : S_TEXT/UTF8
    Идентификатор кодека/Информация : UTF-8 Plain Text
    Язык : Russian
    Default : Нет
    Forced : Нет
    Текст #2
    Идентификатор : 5
    Формат : UTF-8
    Идентификатор кодека : S_TEXT/UTF8
    Идентификатор кодека/Информация : UTF-8 Plain Text
    Язык : English
    Default : Нет
    Forced : Нет
    Меню
    00: 00: 00.000 : : 00: 00: 00.000
    00: 07: 50.595 : : 00: 07: 50.595
    00: 10: 25.208 : : 00: 10: 25.208
    00: 13: 35.314 : : 00: 13: 35.314
    00: 17: 46.565 : : 00: 17: 46.565
    00: 21: 13.647 : : 00: 21: 13.647
    00: 26: 22.915 : : 00: 26: 22.915
    00: 31: 15.540 : : 00: 31: 15.540
    00: 33: 35.096 : : 00: 33: 35.096
    00: 42: 57.116 : : 00: 42: 57.116
    00: 51: 09.775 : : 00: 51: 09.775
    01: 03: 58.793 : : 01: 03: 58.793
    01: 06: 23.062 : : 01: 06: 23.062
    01: 11: 34.457 : : 01: 11: 34.457
    01: 15: 37.366 : : 01: 15: 37.366
    01: 18: 09.810 : : 01: 18: 09.810
    01: 19: 44.279 : : 01: 19: 44.279
    01: 23: 10.861 : : 01: 23: 10.861
    01: 29: 27.612 : : 01: 29: 27.612
    01: 37: 30.053 : : 01: 37: 30.053

    Скриншоты для ознакомления



    Все релизы Санта Клауса в Клубе
    Время раздачи: c 5 до 19 мск (до появления первых 3-5 скачавших)

    Онлайн видео Санта Клаус 2



    Санта Клаус 2/The Santa Clause 2 (2002) BDRip [H.264/720p]
    Рейтинг →
     (голосов: 1, оценка 4/5, голосовать можно 1 раз )

    Другие торренты по теме:

  • Санта Клаус 3 Хозяин полюса / Santa Clause 3 Escape Clause (2006) BDRemux [1080p]
  • Растровый клипарт - Весельчак Санта Клаус [JPG]
  • Санта Клаус / The Santa Clause (1994) BDRip [H.264 / 720p]
  • Санта Клаус / The Santa Clause (1994, 2002, 2006) BDRip [Трилогия]
  • Санта Клаус / The Santa Clause (1994, 2002, 2006) BDRip [H.265 / 1080p] [10-bit] [Трилогия]


    • Комментарии (0):

      Информация

      Информация

        Посетители, находящиеся в группе Гости, не могут оставлять комментарии в данной новости.

        ↓ Меню




        ↓ Опрос

        Вы добавили сайт в закладки?
        Да
        Нет


        Популярное