.
Авторизация | Регистрация
bitok.xyz
» » Монтана (2008) DVD9 торрент скачать бесплатно


    Монтана (2008) DVD9 торрент скачать бесплатно

    Дата: 28-12-2019, 05:00 | .torrent скачали: 0

    Монтана (2008) DVD9Производство: Россия
    Жанр: Боевик/Приключения/Криминал
    Режиссер: Александр Атанесян

    Актеры
    Александр Атанесян, Олег Тактаров, Игорь Жижикин, Скарлет МакАлистер, Нолан Гоулд
    Описание : От создателей фильма Сволочи Монтана… Страна грез, синих горных озер, горячих гейзеров и крутых ковбоев. В детстве Николай и Виктор мечтали о ней в детдоме… Теперь они оба на пути в Монтану. На одном из крутых поворотов судьбы Николайвстречает любовь. Впервые в жизни он счастлив, но чувствует, что за ним идет охота…

    Возраст: 16+ (зрителям, достигшим 16 лет)
    Продолжительность: 02: 52: 03
    Качество видео: DVD9
    Видео: MPEG-2, 720x576@768x576, ~7000 Kbps
    Аудио #1: AC3, 6 ch, 448 Kbps
    Аудио #2: DTS, 6 ch, 755 Kbps
    Общее
    Полное имя : Монтана.2008.DVD9VIDEO_TSVTS_01_1.VOB
    Формат : MPEG-PS
    Размер файла : 1024 Мбайт
    Продолжительность : 17 м. 7 с.
    Режим общего битрейта : Переменный
    Общий поток : 8357 Кбит/сек
    Видео
    Идентификатор : 224 (0xE0)
    Формат : MPEG Video
    Версия формата : Version 2
    Профиль формата : Main@Main
    Настройки формата : CustomMatrix/BVOP
    Параметр BVOP формата : Да
    Параметр матрицы формата : Выборочная
    Параметр GOP формата : M=3, N=12
    Продолжительность : 17 м. 7 с.
    Вид битрейта : Переменный
    Битрейт : 6988 Кбит/сек
    Максимальный битрейт : 8000 Кбит/сек
    Ширина : 720 пикселей
    Высота : 576 пикселей
    Соотношение сторон : 16: 9
    Частота кадров : 25, 000 кадров/сек
    Стандарт вещания : PAL
    Цветовое пространство : YUV
    Субдискретизация насыщенности : 4: 2: 0
    Битовая глубина : 8 бит
    Тип развёртки : Прогрессивная
    Метод сжатия : С потерями
    Бит/(Пиксели*Кадры) : 0.674
    Временной код первого кадра : 00: 00: 00: 10
    Оригинал временного кода : Group of pictures t_head
    GOP, открыто/закрыто : Закрыто
    Размер потока : 856 Мбайт (84%)
    Основные цвета : BT.601 NTSC
    Характеристики трансфера : BT.601
    Коэффициенты матрицы : BT.601
    Аудио #1
    Идентификатор : 189 (0xBD)-128 (0x80)
    Формат : AC-3
    Формат/Информация : Audio Coding 3
    Коммерческое название : Dolby Digital
    Режим смешивания : DVD-Video
    Продолжительность : 17 м. 7 с.
    Вид битрейта : Постоянный
    Битрейт : 448 Кбит/сек
    Каналы : 6 каналов
    ChannelLayout : L R C LFE Ls Rs
    Частота : 48, 0 КГц
    Частота кадров : 31, 250 кадров/сек (1536 SPF)
    Метод сжатия : С потерями
    Размер потока : 54, 9 Мбайт (5%)
    ServiceKind/String : Complete Main
    Аудио #2
    Идентификатор : 189 (0xBD)-137 (0x89)
    Формат : DTS
    Формат/Информация : Digital Theater Systems
    Режим смешивания : DVD-Video
    Продолжительность : 17 м. 7 с.
    Вид битрейта : Постоянный
    Битрейт : 755 Кбит/сек
    Каналы : 6 каналов
    ChannelLayout : C L R Ls Rs LFE
    Частота : 48, 0 КГц
    Частота кадров : 93, 750 кадра/сек (512 SPF)
    Битовая глубина : 24 бит
    Метод сжатия : С потерями
    Размер потока : 92, 4 Мбайт (9%)
    Меню


    Монтана (2008) DVD9
    Рейтинг →
     (голосов: 1, оценка 4/5, голосовать можно 1 раз )

    Другие торренты по теме:

  • Монтана / Montana (2014) BDRip [720p] [EN / EN Sub] скачать через торрент бесплатно
  • Монтана / Montana (2014) BDRip [1080p] [EN / EN Sub] скачать через торрент бесплатно
  • Монтана / Montana / Killer Games / Nothing Personal (1998) DVDRip
  • Монтана / Montana (2014) HDRip [VO]
  • Монтана / Montana (2014) HDRip [576p] iPad скачать через торрент бесплатно
  • Монтана / Montana (1950) DVDRip [H.264]
  • Дикая Монтана / Wild Montana (2018) HDTVRip [H.264 / 1080p-LQ] (cерии 1-6)
  • Монтана / Montana (1998) WEB-DL [H.264 / 1080p]


    • Комментарии (0):

      Информация

      Информация

        Посетители, находящиеся в группе Гости, не могут оставлять комментарии в данной новости.

        ↓ Меню




        ↓ Опрос

        Вы добавили сайт в закладки?
        Да
        Нет


        Популярное