.
Авторизация | Регистрация
bitok.xyz
» » Любовь в СССР (2012) BDRip [H.264] торрент скачать бесплатно


    Любовь в СССР (2012) BDRip [H.264] торрент скачать бесплатно

    Дата: 28-12-2019, 05:00 | .torrent скачали: 0

    Любовь в СССР (2012) BDRip [H.264]Производство: Россия/Курьер, Мосфильм, Мосфильм-Мастер
    Жанр: мелодрама
    Режиссер: Карен Шахназаров
    Продюсер: Карен Шахназаров, Галина Шадур

    Актеры
    Александр Ляпин, Лидия Милюзина, Егор Барановский, Армен Джигарханян, Ольга Тумайкина, Иван Купреенко, Татьяна Яковенко, Янина Калганова, Станислав Эвентов, Василий Шахназаров

    Описание

    Действие картины разворачивается в 1973 году. Сергей, Степан и Люда учатся в одном институте, ссорятся, мирятся, одерживают первые победы, испытывают первые разочарования, даже не догадываясь о том, что уже совсем скоро Советский Союз — страна, в которой они родились и живут, исчезнет…

    Возраст: 16+ (зрителям, достигшим 16 лет)
    Релиз от: MAG3131
    Продолжительность: 01: 31: 09
    Качество видео: BDRip
    Перевод: Не требуется (BD RUS)
    Субтитры: Отсутствуют
    Видео: AVC/H.264, 968x576, ~1737 kbps
    Аудио: AC3, 6 ch, 448 kbpsYouTube
    -Information 27.12.2019 1: 51: 32 x264 info: frame I: 689 Avg QP: 15.25 size: 66798
    -Information 27.12.2019 1: 51: 32 x264 info: frame P: 27092 Avg QP: 18.60 size: 20861
    -Information 27.12.2019 1: 51: 32 x264 info: frame B: 100884 Avg QP: 19.94 size: 5441

    Общее
    Уникальный идентификатор : 150531508860717941852254269152938289740 (0x713F506581A42E2443C50ECB4229EA4C)
    Полное имя : Love.In.The.USSR.2012.BDRip.RUS.MAG3131.mkv
    Формат : Matroska
    Версия формата : Version 2
    Размер файла : 1, 37 Гбайт
    Продолжительность : 1 ч. 31 м.
    Общий поток : 2147 Кбит/сек
    Название фильма : Любовь в СССР (MAG3131)
    Дата кодирования : UTC 2019-12-27 00: 31: 46
    Программа кодирования : mkvmerge v41.0.0 (\'Smarra\') 64-bit
    Библиотека кодирования : libebml v1.3.9 + libmatroska v1.5.2
    Attachments : Лог кодирования.log
    Видео
    Идентификатор : 1
    Формат : AVC
    Формат/Информация : Advanced Video Codec
    Профиль формата : High@L4.1
    Настройки формата : CABAC/12 Ref Frames
    Параметр CABAC формата : Да
    Параметр RefFrames формата : 12 кадров
    Идентификатор кодека : V_MPEG4/ISO/AVC
    Продолжительность : 1 ч. 31 м.
    Битрейт : 1737 Кбит/сек
    Ширина : 968 пикселей
    Высота : 576 пикселей
    Соотношение сторон : 5: 3
    Режим частоты кадров : Постоянный
    Частота кадров : 23, 976 (24000/1001) кадра/сек
    Цветовое пространство : YUV
    Субдискретизация насыщенности : 4: 2: 0
    Битовая глубина : 8 бит
    Тип развёртки : Прогрессивная
    Бит/(Пиксели*Кадры) : 0.130
    Размер потока : 1, 05 Гбайт (77%)
    Заголовок : Любовь в СССР
    Библиотека кодирования : x264 core 157 r2935 545de2f
    Настройки программы : cabac=1/ref=12/deblock=1: -1: -1/analyse=0x3: 0x133/me=umh/subme=11/psy=1/psy_rd=1.00: 0.15/mixed_ref=1/me_range=64/chroma_me=1/trellis=2/8x8dct=1/cqm=0/deadzone=21, 11/fast_pskip=0/chroma_qp_offset=-3/threads=6/lookahead_threads=1/sliced_threads=0/nr=0/decimate=0/interlaced=0/bluray_compat=0/constrained_intra=0/bframes=16/b_pyramid=2/b_adapt=2/b_bias=0/direct=3/weightb=1/open_gop=0/weightp=2/keyint=240/keyint_min=23/scenecut=40/intra_refresh=0/rc_lookahead=60/rc=2pass/mbtree=0/bitrate=1737/ratetol=1.0/qcomp=0.60/qpmin=0/qpmax=69/qpstep=4/cplxblur=20.0/qblur=0.5/vbv_maxrate=50000/vbv_bufsize=62500/nal_hrd=none/filler=0/ip_ratio=1.40/pb_ratio=1.30/aq=1: 1.00
    Язык : Russian
    Default : Да
    Forced : Нет
    Аудио
    Идентификатор : 2
    Формат : AC-3
    Формат/Информация : Audio Coding 3
    Коммерческое название : Dolby Digital
    Идентификатор кодека : A_AC3
    Продолжительность : 1 ч. 31 м.
    Вид битрейта : Постоянный
    Битрейт : 448 Кбит/сек
    Каналы : 6 каналов
    ChannelLayout : L R C LFE Ls Rs
    Частота : 48, 0 КГц
    Частота кадров : 31, 250 кадров/сек (1536 SPF)
    Метод сжатия : С потерями
    Размер потока : 292 Мбайт (21%)
    Заголовок : Оригинал (AC-3, Постоянный, 448 Кбит/сек, 6 каналов, 48, 0 КГц, 16 бит)
    Язык : Russian
    ServiceKind/String : Complete Main
    Default : Да
    Forced : Нет
    Меню
    00: 00: 00.000 : : Глава 01
    00: 04: 04.327 : : Глава 02
    00: 10: 07.106 : : Глава 03
    00: 15: 14.413 : : Глава 04
    00: 18: 52.757 : : Глава 05
    00: 24: 29.718 : : Глава 06
    00: 33: 51.404 : : Глава 07
    00: 40: 58.164 : : Глава 08
    00: 49: 27.089 : : Глава 09
    00: 55: 41.380 : : Глава 10
    01: 00: 37.050 : : Глава 11
    01: 08: 04.664 : : Глава 12
    01: 14: 48.359 : : Глава 13
    01: 20: 06.260 : : Глава 14

    Скриншоты для ознакомления



    Все одноименные релизы в Клубе
    Время раздачи: 24/7 до первых 10 скачавших, потом ухожу с раздачи

    Любовь в СССР (2012) BDRip [H.264]
    Рейтинг →
     (голосов: 1, оценка 3/5, голосовать можно 1 раз )

    Другие торренты по теме:

  • Сделано в СССР. Любовь поэта (2014) SATRip
  • Сделано в СССР. Любовь поэта (2014) SATRip


    • Комментарии (0):

      Информация

      Информация

        Посетители, находящиеся в группе Гости, не могут оставлять комментарии в данной новости.

        ↓ Меню




        ↓ Опрос

        Вы добавили сайт в закладки?
        Да
        Нет


        Популярное

        Полицейский с Рублёвки. Новогодний беспредел 2 (2019) CamRip [AD]

        (скачиваний: 2276)
        Властелин колец: Трилогия / The Lord of the Rings: Trilogy (2001,2002,2003) BDRip [H.264] [Extended Editions] скачать через торрент бесплатно

        (скачиваний: 672)
        Властелин колец / The Lord of the Rings (2001,2002,2003) BDRip [Extended Edition] [H.264 / 1080p-LQ] [Hi10P]

        (скачиваний: 661)
        Начало / Inception (2010) BDRip [H.265 / 1080p]

        (скачиваний: 642)
        Властелин колец / The Lord of the Rings (2001,2002,2003) BDRip [1080p] [Extended Edition] [Трилогия]

        (скачиваний: 608)
        Квартирник НТВ у Маргулиса. Новогодний выпуск (31.12.2019) WEB-DL [H.264 / 1080p-LQ]

        (скачиваний: 456)
        Каникулы off-line (2018) WEBRip

        (скачиваний: 438)
        Хоббит: Трилогия / The Hobbit: Trilogy (2012, 2013, 2014) BDRip [H.265 / 1080p-LQ] [10-bit] [Расширенная версия]

        (скачиваний: 398)
        Властелин колец / The Lord of the Rings (2001,2002,2003) BDRip [1080p] [Extended Edition] [Трилогия] скачать через торрент бесплатно

        (скачиваний: 277)
        Во все тяжкие / Breaking Bad (2008-2013) BDRip [H.264 / 1080p] (сезон 1-5, серии 1-62 из 62) Кубик в Кубе, LostFilm скачать через торрент бесплатно

        (скачиваний: 256)