.
Авторизация | Регистрация
bitok.xyz
» » Пышка / Boule de suif (1945) DVD5 [Custom] торрент скачать бесплатно


    Пышка / Boule de suif (1945) DVD5 [Custom] торрент скачать бесплатно

    Дата: 28-12-2019, 05:00 | .torrent скачали: 1

    Пышка / Boule de suif (1945) DVD5 [Custom]Производство: Франция/Artes Films
    Жанр: Драма
    Режиссер: Кристиан-Жак

    Актеры
    Мишлин Прель, Берт Бови, Луиз Конте, Мона Доль, Габриель Фонтан, Сюзет Маис, Берт Тиссен, Альфред Адам, Жан Брошар

    Описание

    Нормандия, 1870 год. Проститутка Пышка решает покинуть Францию, оккупированную прусской армией. Она уезжает из Руана и направляется в Гавр в дилижансе вместе с группой буржуа. Когда экипаж останавливается в гостинице, прусский офицер запрещает пассажирам продолжать поездку, пока Пышка не проведёт с ним ночь. Вначале она отказывается подчиниться врагу, но из жалости к попутчикам уступает. И всё равно дилижансу не пришлось уехать далеко - он захвачен в плен прусскими солдатами. И всех женщин увозят в замок садиста-лейтенанта...

    Релиз от: maroder1 (NNM-CLUB)
    Продолжительность: 01: 41: 58
    Качество видео: DVD5
    Перевод: Любительский (одноголосый закадровый)
    Субтитры: Отсутствуют
    Дополнительные материалы: Нет
    Видео: MPEG-2, PAL 720x576@768x576 (4: 3), ~5261 Kbps, 25.00 fps
    Аудио#1: AC3, 2 ch, 192 Kbps - Русский
    Аудио#2: AC3, 2 ch, 192 Kbps - Французский
    Title:
    Size: 4.10 Gb ( 4 294 454 KBytes ) - DVD-5
    Enabled regions: 1, 2, 3, 4, 5, 6, 7, 8
    VTS_01 :
    Play Length: 01: 41: 58
    Video: PAL 4: 3 (720x576) VBR
    Audio:
    Russian (Dolby AC3, 2 ch)
    Francais (Dolby AC3, 2 ch)

    Общее
    Полное имя : F: NNMClub.to_Boule.de.suif.1945.DVD5_maroder1VIDEO_TSVTS_01_1.VOB
    Формат : MPEG-PS
    Размер файла : 1024 Мбайт
    Продолжительность : 24 м.
    Режим общего битрейта : Переменный
    Общий поток : 5760 Кбит/сек
    Видео
    Идентификатор : 224 (0xE0)
    Формат : MPEG Video
    Версия формата : Version 2
    Профиль формата : Main@Main
    Параметр BVOP формата : Да
    Параметр матрицы формата : Выборочная
    Параметр GOP формата : M=3, N=12
    Продолжительность : 24 м.
    Вид битрейта : Переменный
    Битрейт : 5261 Кбит/сек
    Максимальный битрейт : 8700 Кбит/сек
    Ширина : 720 пикселей
    Высота : 576 пикселей
    Соотношение сторон : 4: 3
    Частота кадров : 25, 000 кадров/сек
    Стандарт вещания : PAL
    Цветовое пространство : YUV
    Субдискретизация насыщенности : 4: 2: 0
    Битовая глубина : 8 бит
    Тип развёртки : Чересстрочная
    Порядок развёртки : Верхнее поле первое
    Метод сжатия : С потерями
    Бит/(Пиксели*Кадры) : 0.507
    Размер потока : 935 Мбайт (91%)
    Аудио #1
    Идентификатор : 189 (0xBD)-128 (0x80)
    Формат : AC-3
    Формат/Информация : Audio Coding 3
    Расширение режима : CM (complete main)
    Параметр Endianness формата : Big
    Режим смешивания : DVD-Video
    Продолжительность : 24 м.
    Вид битрейта : Постоянный
    Битрейт : 192 Кбит/сек
    Каналы : 2 канала
    Расположение каналов : Front: L R
    Частота : 48, 0 КГц
    Битовая глубина : 16 бит
    Метод сжатия : С потерями
    Задержка видео : -80 мс.
    Размер потока : 34, 1 Мбайт (3%)
    Аудио #2
    Идентификатор : 189 (0xBD)-129 (0x81)
    Формат : AC-3
    Формат/Информация : Audio Coding 3
    Расширение режима : CM (complete main)
    Параметр Endianness формата : Big
    Режим смешивания : DVD-Video
    Продолжительность : 24 м.
    Вид битрейта : Постоянный
    Битрейт : 192 Кбит/сек
    Каналы : 2 канала
    Расположение каналов : Front: L R
    Частота : 48, 0 КГц
    Битовая глубина : 16 бит
    Метод сжатия : С потерями
    Задержка видео : -80 мс.
    Размер потока : 34, 1 Мбайт (3%)
    Меню


    Онлайн видео Пышка



    Пышка/Boule de suif (1945) DVD5 [Custom]
    Рейтинг →
     (голосов: 1, оценка 3/5, голосовать можно 1 раз )

    Другие торренты по теме:

  • Пышка (1934) SATRip [H.264]
  • Ги де Мопассан | Пышка (1980) [MP3]
  • Пышка / Dumplin (2018) WEBRip [H.264 / 1080p-LQ] [MVO]
  • Пышка / Dumplin (2018) WEB-Rip [1080p] ATV
  • Пышка / Dumplin (2018) WEBRip [MVO]


    • Комментарии (0):

      Информация

      Информация

        Посетители, находящиеся в группе Гости, не могут оставлять комментарии в данной новости.

        ↓ Меню




        ↓ Опрос

        Вы добавили сайт в закладки?
        Да
        Нет


        Популярное

        Полицейский с Рублёвки. Новогодний беспредел 2 (2019) CamRip [AD]

        (скачиваний: 1815)
        Властелин колец: Трилогия / The Lord of the Rings: Trilogy (2001,2002,2003) BDRip [H.264] [Extended Editions] скачать через торрент бесплатно

        (скачиваний: 663)
        Властелин колец / The Lord of the Rings (2001,2002,2003) BDRip [Extended Edition] [H.264 / 1080p-LQ] [Hi10P]

        (скачиваний: 655)
        Начало / Inception (2010) BDRip [H.265 / 1080p]

        (скачиваний: 629)
        Властелин колец / The Lord of the Rings (2001,2002,2003) BDRip [1080p] [Extended Edition] [Трилогия]

        (скачиваний: 607)
        Квартирник НТВ у Маргулиса. Новогодний выпуск (31.12.2019) WEB-DL [H.264 / 1080p-LQ]

        (скачиваний: 452)
        Каникулы off-line (2018) WEBRip

        (скачиваний: 432)
        Хоббит: Трилогия / The Hobbit: Trilogy (2012, 2013, 2014) BDRip [H.265 / 1080p-LQ] [10-bit] [Расширенная версия]

        (скачиваний: 396)
        Властелин колец / The Lord of the Rings (2001,2002,2003) BDRip [1080p] [Extended Edition] [Трилогия] скачать через торрент бесплатно

        (скачиваний: 264)
        Во все тяжкие / Breaking Bad (2008-2013) BDRip [H.264 / 1080p] (сезон 1-5, серии 1-62 из 62) Кубик в Кубе, LostFilm скачать через торрент бесплатно

        (скачиваний: 252)