.
Авторизация | Регистрация
bitok.xyz
» » Санта Клаус / The Santa Clause (1994, 2002, 2006) BDRip [Трилогия] торрент скачать бесплатно


    Санта Клаус / The Santa Clause (1994, 2002, 2006) BDRip [Трилогия] торрент скачать бесплатно

    Дата: 28-12-2019, 05:00 | .torrent скачали: 2

    Санта Клаус / The Santa Clause (1994, 2002, 2006) BDRip [Трилогия]Год выпуска: 1994, 2002, 2006
    Производство: США/Walt Disney Pictures, Boxing Cat Films, Outlaw Productions (I)
    Жанр: фэнтези, комедия, приключения, семейный
    Режиссер: Джон Паскуин, Майкл Лембек

    Актеры
    Тим Аллен, Джадж Райнхолд, Венди Крюсон, Эрик Ллойд, Дэвид Крамхолц, Ларри Бранденбург, Мэри Гросс, Пейдж Тамада, Питер Бойл, Джудит Скотт, Мартин Шорт

    Описание

    В рождественскую ночь продавец игрушек Скотт Кэлвин случайно сталкивает со своей крыши странного старичка. К его невероятному удивлению, там же он обнаруживает припаркованного северного оленя.
    Пока незнакомец беспомощно барахтается в сугробе, любопытный Скотт вскакивает в седло — и оказывается на Северном Полюсе, где главный эльф убеждает его занять место Санта Клауса, который в данный момент лежит возле дома Кэлвина и не может выполнять свои обязанности.
    Он соглашается, но одно дело — напялить на себя костюм и плясать с детишками, и совсем другое — быть настоящим Сантой, когда у тебя на самом деле растет борода, пузо, и на глазах седеют волосы. Такого веселого Рождества у него еще не было…
    Продолжительность: 01: 37: 08/01: 44: 22/01: 31: 57
    Качество видео: BDRip
    Перевод: многоголосый профессиональный
    Субтитры: отсутствуют
    Видео: XviD, 704x384, ~1939 - 2059 kbps
    Аудио: AC3, 2 ch, 192 kbps, Русский (MVO Blu-ray CEE)Санта Клаус (1994)/The Santa Clause (1994) BDRip
    Производство: США/Walt Disney Pictures, Hollywood Pictures
    Жанр: фэнтези, драма, комедия, семейный
    Режиссер: Джон Паскуин

    Актеры
    Тим Аллен, Джадж Райнхолд, Венди Крюсон, Эрик Ллойд, Дэвид Крамхолц, Ларри Бранденбург, Мэри Гросс, Пейдж Тамада, Питер Бойл, Джудит Скотт

    Описание

    В рождественскую ночь продавец игрушек Скотт Кэлвин случайно сталкивает со своей крыши странного старичка. К его невероятному удивлению, там же он обнаруживает припаркованного северного оленя.
    Пока незнакомец беспомощно барахтается в сугробе, любопытный Скотт вскакивает в седло — и оказывается на Северном Полюсе, где главный эльф убеждает его занять место Санта Клауса, который в данный момент лежит возле дома Кэлвина и не может выполнять свои обязанности.
    Он соглашается, но одно дело — напялить на себя костюм и плясать с детишками, и совсем другое — быть настоящим Сантой, когда у тебя на самом деле растет борода, пузо, и на глазах седеют волосы. Такого веселого Рождества у него еще не было…

    Возраст: 6+ (зрителям, достигшим 6 лет)
    Рейтинг MPAA: PG (рекомендуется присутствие родителей)
    Продолжительность: 01: 37: 08
    Качество видео: BDRip
    Перевод: Многоголосый профессиональный
    Субтитры: отсутствуют
    Видео: XviD, 704x384, ~1939 kbps
    Аудио: AC3, 2 ch, 192 kbps, Русский (MVO Blu-ray CEE)
    Общее
    Полное имя : D: FILMSZALIVSanta_KlausSanta.Klaus.1994.RUS.BDRip.avi
    Формат : AVI
    Формат/Информация : Audio Video Interleave
    Размер файла : 1, 45 Гбайт
    Продолжительность : 1 ч. 37 м.
    Общий поток : 2140 Кбит/сек
    Название фильма : Санта Клаус/The Santa Clause (1994) BDRip
    Режиссёр : sociolog_melvas
    Жанр : фэнтези, драма, комедия
    Программа кодирования : VirtualDubMod 1.5.10.2 (build 2540/release)
    Авторское право : http://hqclub.net/
    Примечание : 23.12.2012
    Видео
    Идентификатор : 0
    Формат : MPEG-4 Visual
    Профиль формата : Advanced Simple@L5
    Настройки формата : BVOP1/Custom Matrix
    Параметр BVOP формата : 1
    Параметр QPel формата : Нет
    Параметр GMC формата : Без точки перехода
    Параметр матрицы формата : Выборочная
    Идентификатор кодека : XVID
    Идентификатор кодека/Подсказка : XviD
    Продолжительность : 1 ч. 37 м.
    Битрейт : 1939 Кбит/сек
    Ширина : 704 пикселя
    Высота : 384 пикселя
    Соотношение сторон : 1, 85: 1
    Частота кадров : 23, 976 (24000/1001) кадра/сек
    Цветовое пространство : YUV
    Субдискретизация насыщенности : 4: 2: 0
    Битовая глубина : 8 бит
    Тип развёртки : Прогрессивная
    Метод сжатия : С потерями
    Бит/(Пиксели*Кадры) : 0.299
    Размер потока : 1, 32 Гбайт (91%)
    Библиотека кодирования : XviD 65
    Аудио
    Идентификатор : 1
    Формат : AC-3
    Формат/Информация : Audio Coding 3
    Коммерческое название : Dolby Digital
    Идентификатор кодека : 2000
    Продолжительность : 1 ч. 37 м.
    Вид битрейта : Постоянный
    Битрейт : 192 Кбит/сек
    Каналы : 2 канала
    ChannelLayout : L R
    Частота : 48, 0 КГц
    Частота кадров : 31, 250 кадров/сек (1536 SPF)
    Метод сжатия : С потерями
    Размер потока : 133 Мбайт (9%)
    Выравнивание : Разделение по промежуткам
    Продолжительность промежутка : 42 мс. (1, 00 видеокадр)
    Время предзагрузки промежутка : 500 мс.
    ServiceKind/String : Complete Main

    Скриншоты для ознакомления



    Все одноименные релизы в Клубе Санта Клаус 2 (2002)/The Santa Clause 2 (2002) BDRip
    Производство: США/Walt Disney Pictures, Outlaw Productions (I), Boxing Cat Films
    Жанр: фэнтези, комедия, семейный
    Режиссер: Майкл Лембек

    Актеры
    им Аллен, Элизабет Митчелл, Дэвид Крамхолц, Эрик Ллойд, Джадж Райнхолд, Венди Крюсон, Спенсер Бреслин, Лилиана Муми, Даниэль Вудман, Арт ЛаФлёр

    Описание

    Вот уже восемь лет Скотт Кэлвин работает Санта Клаусом не покладая рук и как следует вошел во вкус. Однако это не значит, что у него не осталось никаких забот. На подступах к очередному Новому году герой вдруг открывает, что его сын Чарли растет хулиганом, а сам он согласно контракту обязан безотлагательно найти себе миссис Клаус, потому что холостой Санта — нарушение всех мыслимых правил.
    Вдобавок, пытаясь одновременно решить возникшие проблемы, он неосторожно поручает дела двойнику, который в его отсутствие превращает жизнь на полюсе в полный хаос!

    Возраст: 12+ (зрителям, достигшим 12 лет)
    Рейтинг MPAA: G (нет возрастных ограничений)
    Продолжительность: 01: 44: 22
    Качество видео: BDRip
    Перевод: Многоголосый профессиональный
    Субтитры: отсутствуют
    Видео: XviD, 704x384, ~1788 kbps
    Аудио: AC3, 2 ch, 192 kbps, Русский (MVO Blu-ray CEE)
    Общее
    Полное имя : D: FILMSZALIVSanta_KlausSanta.Klaus.2.2002.RUS.BDRip.avi
    Формат : AVI
    Формат/Информация : Audio Video Interleave
    Размер файла : 1, 45 Гбайт
    Продолжительность : 1 ч. 44 м.
    Общий поток : 1990 Кбит/сек
    Название фильма : Санта Клаус 2/The Santa Clause 2 (2002) BDRip
    Режиссёр : sociolog_melvas
    Жанр : фэнтези, комедия, семейный
    Программа кодирования : VirtualDubMod 1.5.10.2 (build 2540/release)
    Авторское право : http://hqclub.net/
    Примечание : 25.12.2012
    Видео
    Идентификатор : 0
    Формат : MPEG-4 Visual
    Профиль формата : Advanced Simple@L5
    Настройки формата : BVOP1/Custom Matrix
    Параметр BVOP формата : 1
    Параметр QPel формата : Нет
    Параметр GMC формата : Без точки перехода
    Параметр матрицы формата : Выборочная
    Идентификатор кодека : XVID
    Идентификатор кодека/Подсказка : XviD
    Продолжительность : 1 ч. 44 м.
    Битрейт : 1788 Кбит/сек
    Ширина : 704 пикселя
    Высота : 384 пикселя
    Соотношение сторон : 1, 85: 1
    Частота кадров : 23, 976 (24000/1001) кадра/сек
    Цветовое пространство : YUV
    Субдискретизация насыщенности : 4: 2: 0
    Битовая глубина : 8 бит
    Тип развёртки : Прогрессивная
    Метод сжатия : С потерями
    Бит/(Пиксели*Кадры) : 0.276
    Размер потока : 1, 30 Гбайт (90%)
    Библиотека кодирования : XviD 65
    Аудио
    Идентификатор : 1
    Формат : AC-3
    Формат/Информация : Audio Coding 3
    Коммерческое название : Dolby Digital
    Идентификатор кодека : 2000
    Продолжительность : 1 ч. 44 м.
    Вид битрейта : Постоянный
    Битрейт : 192 Кбит/сек
    Каналы : 2 канала
    ChannelLayout : L R
    Частота : 48, 0 КГц
    Частота кадров : 31, 250 кадров/сек (1536 SPF)
    Метод сжатия : С потерями
    Размер потока : 143 Мбайт (10%)
    Выравнивание : Разделение по промежуткам
    Продолжительность промежутка : 42 мс. (1, 00 видеокадр)
    Время предзагрузки промежутка : 500 мс.
    ServiceKind/String : Complete Main

    Скриншоты для ознакомления



    Все одноименные релизы в Клубе Санта Клаус 3 (2006)/The Santa Clause 3: The Escape Clause (2006) BDRip
    Производство: США/Walt Disney Pictures, Boxing Cat Films, Outlaw Productions (I)
    Жанр: фэнтези, комедия, приключения, семейный
    Режиссер: Майкл Лембек

    Актеры
    Тим Аллен, Мартин Шорт, Элизабет Митчелл, Эрик Ллойд, Джадж Райнхолд, Венди Крюсон, Спенсер Бреслин, Лилиана Муми, Энн-Маргрет, Алан Аркин

    Описание

    Рискуя выдать тайну Северного полюса, Скотт Кэлвин, а по совместительству Санта Клаус, приглашает своих родственников отпраздновать Рождество, а заодно и предстоящее появление на свет сына Клауса, которого вот-вот должна родить его жена Кэрол. В итоге Скотт вместе с его большим семейством и главным эльфом Кертисом вынужден противостоять коварному злодею Джеку Фросту, который намеревается отобрать Рождество у Санта-Клауса и захватить власть на Северном полюсе…

    Возраст: 12+ (зрителям, достигшим 12 лет)
    Рейтинг MPAA: G (нет возрастных ограничений)
    Продолжительность: 01: 31: 57
    Качество видео: BDRip
    Перевод: многоголосый профессиональный
    Субтитры: отсутствуют
    Видео: XviD, 704x384, ~2059 kbps
    Аудио: AC3, 2 ch, 192 kbps, Русский (MVO Blu-ray CEE)
    Общее
    Полное имя : D: FILMSZALIVSanta_KlausSanta.Klaus.3.2006.RUS.BDRip.avi
    Формат : AVI
    Формат/Информация : Audio Video Interleave
    Размер файла : 1, 45 Гбайт
    Продолжительность : 1 ч. 31 м.
    Общий поток : 2261 Кбит/сек
    Название фильма : Санта Клаус 3/The Santa Clause 3: The Escape Clause (2006) BDRip
    Режиссёр : sociolog_melvas
    Жанр : фэнтези, комедия, приключения
    Программа кодирования : VirtualDubMod 1.5.10.2 (build 2540/release)
    Авторское право : HQCLUB
    Примечание : 05.01.2016
    Видео
    Идентификатор : 0
    Формат : MPEG-4 Visual
    Профиль формата : Advanced Simple@L5
    Настройки формата : BVOP1/Custom Matrix
    Параметр BVOP формата : 1
    Параметр QPel формата : Нет
    Параметр GMC формата : Без точки перехода
    Параметр матрицы формата : Выборочная
    Идентификатор кодека : XVID
    Идентификатор кодека/Подсказка : XviD
    Продолжительность : 1 ч. 31 м.
    Битрейт : 2059 Кбит/сек
    Ширина : 704 пикселя
    Высота : 384 пикселя
    Соотношение сторон : 1, 85: 1
    Частота кадров : 23, 976 (24000/1001) кадра/сек
    Цветовое пространство : YUV
    Субдискретизация насыщенности : 4: 2: 0
    Битовая глубина : 8 бит
    Тип развёртки : Прогрессивная
    Метод сжатия : С потерями
    Бит/(Пиксели*Кадры) : 0.318
    Размер потока : 1, 32 Гбайт (91%)
    Библиотека кодирования : XviD 65
    Аудио
    Идентификатор : 1
    Формат : AC-3
    Формат/Информация : Audio Coding 3
    Коммерческое название : Dolby Digital
    Идентификатор кодека : 2000
    Продолжительность : 1 ч. 31 м.
    Вид битрейта : Постоянный
    Битрейт : 192 Кбит/сек
    Каналы : 2 канала
    ChannelLayout : L R
    Частота : 48, 0 КГц
    Частота кадров : 31, 250 кадров/сек (1536 SPF)
    Метод сжатия : С потерями
    Размер потока : 126 Мбайт (8%)
    Выравнивание : Разделение по промежуткам
    Продолжительность промежутка : 42 мс. (1, 00 видеокадр)
    Время предзагрузки промежутка : 500 мс.
    ServiceKind/String : Complete Main

    Скриншоты для ознакомления



    Все одноименные релизы в Клубе
    Скриншоты для ознакомления



    Все одноименные релизы в Клубе
    Время раздачи: c 5 до 19 мск (до появления первых 3-5 скачавших)
    Производство: США/Walt Disney Pictures, Boxing Cat Films, Outlaw Productions (I)
    Жанр: фэнтези, комедия, приключения, семейный
    Режиссер: Джон Паскуин, Майкл Лембек

    Актеры
    Тим Аллен, Джадж Райнхолд, Венди Крюсон, Эрик Ллойд, Дэвид Крамхолц, Ларри Бранденбург, Мэри Гросс, Пейдж Тамада, Питер Бойл, Джудит Скотт, Мартин Шорт

    Описание

    В рождественскую ночь продавец игрушек Скотт Кэлвин случайно сталкивает со своей крыши странного старичка. К его невероятному удивлению, там же он обнаруживает припаркованного северного оленя.
    Пока незнакомец беспомощно барахтается в сугробе, любопытный Скотт вскакивает в седло — и оказывается на Северном Полюсе, где главный эльф убеждает его занять место Санта Клауса, который в данный момент лежит возле дома Кэлвина и не может выполнять свои обязанности.
    Он соглашается, но одно дело — напялить на себя костюм и плясать с детишками, и совсем другое — быть настоящим Сантой, когда у тебя на самом деле растет борода, пузо, и на глазах седеют волосы. Такого веселого Рождества у него еще не было…
    Продолжительность: 01: 37: 08/01: 44: 22/01: 31: 57
    Перевод: многоголосый профессиональный
    Субтитры: отсутствуют


    Онлайн видео Санта Клаус



    Санта Клаус/The Santa Clause (1994, 2002, 2006) BDRip [Трилогия]
    Рейтинг →
     (голосов: 1, оценка 5/5, голосовать можно 1 раз )

    Другие торренты по теме:

  • Санта Клаус 3 Хозяин полюса / Santa Clause 3 Escape Clause (2006) BDRemux [1080p]
  • Растровый клипарт - Весельчак Санта Клаус [JPG]
  • Санта Клаус / The Santa Clause (1994) BDRip [H.264 / 720p]
  • Санта Клаус 2 / The Santa Clause 2 (2002) BDRip [H.264 / 720p]
  • Санта Клаус / The Santa Clause (1994, 2002, 2006) BDRip [H.265 / 1080p] [10-bit] [Трилогия]


    • Комментарии (0):

      Информация

      Информация

        Посетители, находящиеся в группе Гости, не могут оставлять комментарии в данной новости.

        ↓ Меню




        ↓ Опрос

        Вы добавили сайт в закладки?
        Да
        Нет


        Популярное