.
Авторизация | Регистрация
bitok.xyz
» » Цветущая долина / Viragvolgy / Blossom Valley (2018) WEBRip [H.264] [VO] торрент скачать бесплатно


    Цветущая долина / Viragvolgy / Blossom Valley (2018) WEBRip [H.264] [VO] торрент скачать бесплатно

    Дата: 28-12-2019, 05:00 | .torrent скачали: 0

    Цветущая долина / Viragvolgy / Blossom Valley (2018) WEBRip [H.264] [VO]Производство: Венгрия, Viragvölgy Produkció
    Жанр: драма
    Режиссер: Ласло Чуйя

    Актеры
    Береньи Бьянка, Ласло Рети, Карой Козма, Дьёрдь Кардос, Роберт Кардош, Кристо Нэги Андреа, Андраш Верес Тибор, Турай Вероника Дороття, Эмюке Кисс-Вег, Эрно Ханко, Габор Ференци

    Описание

    Очень эмоциональная девушка Бьянка обладает бунтарским характером. Для нее закон не имеет никакого значения, она совершенно не способна подчиняться требованиям и правилам. Бьянка часто совершает безответственные и безбашенные поступки и однажды она совершенно неожиданно решила выкрасть коляску с ребенком. На помощь ей приходит парнишка по имени Лаци, который находится под опекой дяди из-за своей умственной отсталости. Лаци хочет свободы и намерен вырваться из-под дядюшкиной опеки. Однажды наступает момент, когда он отправляется вместе с Бьянкой в совершенно безумное путешествие по просторам Венгрии.

    Релиз от: datynet
    Продолжительность: 01: 23: 36
    Качество видео: WEBRip
    Перевод: Одноголосый любительский (datynet; перевод: Куценко)
    Субтитры: отсутствуют
    Реклама: отсутствует
    Видео: AVC/H.264, 1024x576, ~1320 kbps
    Аудио: MP3, 2 ch, 192 Kbps
    General
    Unique ID : 17901051093571836181536803032969841856 (0xD779DF5EBDBCC2144C7CEC72DB90CC0)
    Complete name : Blossom Valley (2018).WEBRip .mkv
    Format : Matroska
    Format version : Version 4/Version 2
    File size : 905 MiB
    Duration : 1 h 23 min
    Overall bit rate : 1 512 kb/s
    Encoded date : UTC 2019-12-20 11: 31: 01
    Writing application : mkvmerge v33.1.0 (\'Primrose\') 64-bit
    Writing library : libebml v1.3.7 + libmatroska v1.5.0
    Video
    ID : 1
    Format : AVC
    Format/Info : Advanced Video Codec
    Format profile : High@L3.1
    Format settings, CABAC : Yes
    Format settings, ReFrames : 4 frames
    Codec ID : V_MPEG4/ISO/AVC
    Duration : 1 h 23 min
    Bit rate : 1 320 kb/s
    Width : 1 024 pixels
    Height : 576 pixels
    Display aspect ratio : 16: 9
    Frame rate mode : Constant
    Frame rate : 25.000 FPS
    Color space : YUV
    Chroma subsampling : 4: 2: 0
    Bit depth : 8 bits
    Scan type : Progressive
    Bits/(Pixel*Frame) : 0.089
    Stream size : 789 MiB (87%)
    Writing library : x264 core 146 r2538 121396c
    Encoding settings : cabac=1/ref=3/deblock=1: 0: 0/analyse=0x3: 0x133/me=hex/subme=7/psy=1/psy_rd=1.00: 0.00/mixed_ref=1/me_range=16/chroma_me=1/trellis=1/8x8dct=1/cqm=0/deadzone=21, 11/fast_pskip=1/chroma_qp_offset=-2/threads=6/lookahead_threads=1/sliced_threads=0/nr=0/decimate=1/interlaced=0/bluray_compat=0/constrained_intra=0/bframes=3/b_pyramid=2/b_adapt=1/b_bias=0/direct=1/weightb=1/open_gop=0/weightp=2/keyint=250/keyint_min=25/scenecut=40/intra_refresh=0/rc_lookahead=40/rc=crf/mbtree=1/crf=20.0/qcomp=0.60/qpmin=10/qpmax=51/qpstep=4/ip_ratio=1.40/aq=1: 1.00
    Default : Yes
    Forced : No
    Audio
    ID : 2
    Format : MPEG Audio
    Format version : Version 1
    Format profile : Layer 3
    Mode : Joint stereo
    Codec ID : A_MPEG/L3
    Codec ID/Hint : MP3
    Duration : 1 h 23 min
    Bit rate mode : Constant
    Bit rate : 192 kb/s
    Channel(s) : 2 channels
    Sampling rate : 48.0 kHz
    Frame rate : 41.667 FPS (1152 spf)
    Compression mode : Lossy
    Delay relative to video : -160 ms
    Stream size : 115 MiB (13%)
    Default : Yes
    Forced : No
    5 побед и 5 номинаций:
    Angers European First Film Festival 2019
    Bratislava International Film Festival 2018
    Karlovy Vary International Film Festival 2018
    KineNova International Film Festival 2018
    Lucas - International Festival of Films for Children and Young People 2018
    Palic Film Festival 2018
    Pune International Film Festival (PIFF) 2019
    Скриншоты для ознакомления



    Все одноименные релизы в Клубе
    Время раздачи: 24/7 (круглосуточно) (до появления первых 3-5 скачавших)

    Онлайн видео Цветущая долина



    Цветущая долина/Viragvolgy/Blossom Valley (2018) WEBRip [H.264] [VO]
    Рейтинг →
     (голосов: 1, оценка 3/5, голосовать можно 1 раз )

    Другие торренты по теме:

  • Картинки - Цветущая глициния. 2048x1152 - 50 шт [JPG]
  • Суперрастения. Цветущая революция / Superplants. Die buhende revolution (2016) HDTVRip [H.264 / 720p-LQ]
  • Hanasakeru Seishounen / Цветущая юность [2009, TV, 39 эп.] DVDrip 480p raw


    • Комментарии (0):

      Информация

      Информация

        Посетители, находящиеся в группе Гости, не могут оставлять комментарии в данной новости.

        ↓ Меню




        ↓ Опрос

        Вы добавили сайт в закладки?
        Да
        Нет


        Популярное